<?xml version="1.0" standalone="no"?>
<!DOCTYPE svg PUBLIC "-//W3C//DTD SVG 1.1//EN" "http://www.w3.org/Graphics/SVG/1.1/DTD/svg11.dtd" >
<svg xmlns="http://www.w3.org/2000/svg" xmlns:xlink="http://www.w3.org/1999/xlink" version="1.1">
<metadata>
Created by FontForge 20190801 at Mon Mar 23 19:50:00 2020
 By Jimmy Wärting
Copyright 2020 The Spartan Project Authors (https://github.com/MattBaileyDesign/Spartan-MB/tree/V-1.005)
</metadata>
<defs>
<font id="SpartanMB-Medium" horiz-adv-x="1383" >
  <font-face 
    font-family="Spartan MB Med"
    font-weight="500"
    font-stretch="normal"
    units-per-em="2200"
    panose-1="0 0 0 0 0 0 0 0 0 0"
    ascent="1760"
    descent="-440"
    x-height="1024"
    cap-height="1650"
    bbox="-135 -560 2848 2314"
    underline-thickness="100"
    underline-position="-200"
    unicode-range="U+000D-FB02"
  />
<missing-glyph horiz-adv-x="715" 
 />
    <glyph glyph-name="f_f" unicode="ff" horiz-adv-x="1430" 
d="M151 1024h114v333q0 96 21.5 169.5t62 123t98 75t129.5 25.5q69 0 120 -18.5t82 -40.5l-70 -137q-18 10 -43.5 17.5t-57.5 7.5q-78 0 -113 -51t-35 -170v-334h342v333q0 96 22 169.5t62.5 123t98 75t129.5 25.5q78 0 131.5 -22t83.5 -46l-67 -137q-20 14 -49 24t-68 10
q-78 0 -113 -51t-35 -170v-334h255v-148h-255v-876h-195v876h-342v-876h-194v876h-114v148z" />
    <glyph glyph-name="f_f_i" unicode="ffi" horiz-adv-x="1727" 
d="M273 1024v333q0 96 21.5 169.5t62 123t98 75t129.5 25.5q69 0 120.5 -18.5t82.5 -40.5l-71 -137q-17 10 -43 17.5t-58 7.5q-78 0 -112.5 -51t-34.5 -170v-334h342v333q0 96 22 169.5t62.5 123t98.5 75t130 25.5q53 0 101.5 -11t91 -30.5t77 -45.5t57.5 -56l-82 -125
q-14 20 -36 38t-48 31.5t-54.5 21t-55.5 7.5q-88 0 -128.5 -51.5t-40.5 -170.5v-334h519v-1024h-195v876h-324v-876h-195v876h-342v-876h-195v876h-113v148h113z" />
    <glyph glyph-name="f_f_j" unicode="ffj" horiz-adv-x="1623" 
d="M92 1024h114v333q0 96 21.5 169.5t62 123t98 75t129.5 25.5q69 0 120 -18.5t82 -40.5l-70 -137q-18 10 -43.5 17.5t-57.5 7.5q-78 0 -113 -51t-35 -170v-334h343v333q0 96 22 169.5t62.5 123t98 75t129.5 25.5q53 0 102 -11t91.5 -30.5t76.5 -45.5t57 -56l-81 -125
q-14 20 -36 38t-48 31.5t-54.5 21t-55.5 7.5q-88 0 -128.5 -51.5t-40.5 -170.5v-334h518v-1233q0 -76 -17.5 -139t-54 -108t-92 -69.5t-132.5 -24.5q-80 0 -131.5 17.5t-78.5 36.5l59 156q18 -15 47 -25.5t64 -10.5q68 0 105 46t37 146v1060h-324v-876h-195v876h-343v-876
h-194v876h-114v148z" />
    <glyph glyph-name="f_f_l" unicode="ffl" horiz-adv-x="1790" 
d="M145 1024h113v333q0 96 21.5 169.5t62 123t98 75t129.5 25.5q69 0 120.5 -18.5t82.5 -40.5l-71 -137q-17 10 -43 17.5t-58 7.5q-78 0 -112.5 -51t-34.5 -170v-334h342v333q0 96 21.5 169.5t62 123t98 75t129.5 25.5q60 0 102.5 -12.5t68.5 -26.5l-50 -152q-40 20 -90 20
q-78 0 -113 -51t-35 -170v-334h255v-148h-255v-876h-194v876h-342v-876h-195v876h-113v148zM1541 1720v-1720h-195v1720h195z" />
    <glyph glyph-name="f_f_t" unicode="fft" horiz-adv-x="1964" 
d="M166 1024h114v333q0 96 21.5 169.5t62 123t98 75t129.5 25.5q69 0 120 -18.5t82 -40.5l-70 -137q-18 10 -43.5 17.5t-57.5 7.5q-78 0 -113 -51t-35 -170v-334h342v333q0 96 22 169.5t62.5 123t98 75t129.5 25.5q69 0 119.5 -18.5t81.5 -39.5l-71 -136q-18 10 -43 16.5
t-56 6.5q-78 0 -113 -51t-35 -170v-334h357v383h195v-383h246v-148h-246v-558q0 -88 26.5 -132.5t89.5 -44.5q32 0 58 11t41 22l49 -156q-29 -17 -79 -33.5t-114 -16.5q-83 0 -135 28.5t-81 73.5t-39.5 102t-10.5 114v590h-357v-876h-195v876h-342v-876h-194v876h-114v148z
" />
    <glyph glyph-name="f_j" unicode="fj" horiz-adv-x="1085" 
d="M205 1024v333q0 96 22 169.5t62.5 123t98 75t129.5 25.5q53 0 102 -11t91.5 -30.5t77 -45.5t57.5 -56l-82 -125q-14 20 -36 38t-48 31.5t-54.5 21t-55.5 7.5q-88 0 -128.5 -51.5t-40.5 -170.5v-334h519v-1233q0 -76 -17.5 -139t-54 -108t-92.5 -69.5t-132 -24.5
q-81 0 -132.5 17.5t-78.5 36.5l59 156q18 -15 47 -25.5t64 -10.5q68 0 105 46t37 146v1060h-324v-876h-195v876h-113v148h113z" />
    <glyph glyph-name="f_t" unicode="ft" horiz-adv-x="1397" 
d="M151 1024h114v333q0 96 21.5 169.5t62 123t98 75t129.5 25.5q69 0 120 -18.5t81 -39.5l-70 -136q-19 10 -44 16.5t-56 6.5q-78 0 -113 -51t-35 -170v-334h357v383h195v-383h246v-148h-246v-578q0 -77 29.5 -117t86.5 -40q23 0 45 6.5t41 17.5l83 -132
q-38 -30 -96.5 -47.5t-117.5 -17.5q-127 0 -196.5 83t-69.5 235v590h-357v-876h-194v876h-114v148z" />
    <glyph glyph-name="fi" unicode="fi" horiz-adv-x="1099" 
d="M88 876v148h113v333q0 96 22 169.5t62.5 123t98 75t129.5 25.5q53 0 102 -11t91 -30.5t76.5 -45.5t57.5 -56l-81 -125q-15 20 -37 38t-48 31.5t-54 21t-55 7.5q-88 0 -128.5 -51.5t-40.5 -170.5v-334h520v-1024h-195v876h-325v-876h-195v876h-113z" />
    <glyph glyph-name="fl" unicode="fl" horiz-adv-x="1124" 
d="M88 876v148h115v333q0 96 21.5 169.5t62 123t97.5 75t129 25.5q60 0 102.5 -12.5t68.5 -26.5l-50 -152q-40 20 -90 20q-78 0 -113 -51t-35 -170v-334h255v-148h-255v-876h-193v876h-115zM947 1720v-1720h-193v1720h193z" />
    <glyph glyph-name=".notdef" horiz-adv-x="715" 
 />
    <glyph glyph-name=".null" horiz-adv-x="31" 
 />
    <glyph glyph-name=".null" horiz-adv-x="31" 
 />
    <glyph glyph-name="uni000D" unicode="&#xd;" horiz-adv-x="1081" 
 />
    <glyph glyph-name="space" unicode=" " horiz-adv-x="518" 
 />
    <glyph glyph-name="A" unicode="A" horiz-adv-x="1457" 
d="M-20 0l654 1650h189l654 -1650h-220l-183 480h-691l-183 -480h-220zM1004 660l-276 718l-275 -718h551z" />
    <glyph glyph-name="Aacute" unicode="&#xc1;" horiz-adv-x="1457" 
d="M-20 0l654 1650h189l654 -1650h-220l-183 480h-691l-183 -480h-220zM1004 660l-276 718l-275 -718h551zM932 2185l85 -152l-397 -197l-64 96z" />
    <glyph glyph-name="Abreve" unicode="&#x102;" horiz-adv-x="1457" 
d="M-20 0l654 1650h189l654 -1650h-220l-183 480h-691l-183 -480h-220zM1004 660l-276 718l-275 -718h551zM305 2270l143 35q9 -49 31.5 -92t58 -75.5t83.5 -51t107 -18.5t107 18.5t83.5 51t58 75.5t31.5 92l143 -35q-12 -74 -48.5 -135t-92 -104.5t-127 -67.5t-155.5 -24
t-155.5 24t-127 67.5t-92 104.5t-48.5 135z" />
    <glyph glyph-name="Acircumflex" unicode="&#xc2;" horiz-adv-x="1457" 
d="M-20 0l654 1650h189l654 -1650h-220l-183 480h-691l-183 -480h-220zM1004 660l-276 718l-275 -718h551zM422 1917l-79 107l385 282l385 -282l-79 -107l-306 224z" />
    <glyph glyph-name="Adieresis" unicode="&#xc4;" horiz-adv-x="1457" 
d="M-20 0l654 1650h189l654 -1650h-220l-183 480h-691l-183 -480h-220zM1004 660l-276 718l-275 -718h551zM964 2135q23 0 43 -9t35 -24t24 -35t9 -43t-9 -43t-24 -35t-35 -24t-43 -9t-43 9t-35 24t-24 35t-9 43t9 43t24 35t35 24t43 9zM381 2024q0 23 9 43t24 35t35 24
t43 9t43 -9t35 -24t24 -35t9 -43t-9 -43t-24 -35t-35 -24t-43 -9t-43 9t-35 24t-24 35t-9 43z" />
    <glyph glyph-name="Agrave" unicode="&#xc0;" horiz-adv-x="1457" 
d="M-20 0l654 1650h189l654 -1650h-220l-183 480h-691l-183 -480h-220zM1004 660l-276 718l-275 -718h551zM817 1836l-410 204l98 145l376 -253z" />
    <glyph glyph-name="Amacron" unicode="&#x100;" horiz-adv-x="1457" 
d="M-20 0l654 1650h189l654 -1650h-220l-183 480h-691l-183 -480h-220zM1004 660l-276 718l-275 -718h551zM320 1947v136h816v-136h-816z" />
    <glyph glyph-name="Aogonek" unicode="&#x104;" horiz-adv-x="1457" 
d="M-20 0l654 1650h189l654 -1650h-220l-183 480h-691l-183 -480h-220zM1004 660l-276 718l-275 -718h551zM1196 -334q0 69 46 154.5t133 179.5h102q-37 -42 -66.5 -84t-49.5 -82t-31 -76.5t-11 -66.5q0 -27 9 -51.5t27.5 -42.5t45.5 -28.5t63 -10.5q96 0 173 90l85 -63
q-23 -33 -53.5 -60t-66.5 -45.5t-75 -28.5t-80 -10q-55 0 -101 17.5t-79.5 48.5t-52 71.5t-18.5 87.5z" />
    <glyph glyph-name="Aring" unicode="&#xc5;" horiz-adv-x="1457" 
d="M-20 0l654 1650h189l654 -1650h-220l-183 480h-691l-183 -480h-220zM1004 660l-276 718l-275 -718h551zM475 2090q0 49 19.5 90t53.5 71t80.5 46.5t99.5 16.5t99.5 -16.5t80.5 -46.5t53.5 -71t19.5 -90t-19.5 -90t-53.5 -71t-80.5 -46.5t-99.5 -16.5t-99.5 16.5
t-80.5 46.5t-53.5 71t-19.5 90zM596 2090q0 -26 10 -48t28 -38.5t42 -26t52 -9.5t52 9.5t42 26t28 38.5t10 48t-10 48t-28 38.5t-42 26t-52 9.5t-52 -9.5t-42 -26t-28 -38.5t-10 -48z" />
    <glyph glyph-name="Atilde" unicode="&#xc3;" horiz-adv-x="1457" 
d="M-20 0l654 1650h189l654 -1650h-220l-183 480h-691l-183 -480h-220zM1004 660l-276 718l-275 -718h551zM218 1963q53 99 129 155.5t175 56.5q46 0 83 -12t69 -30t61 -38.5t59 -38.5t62.5 -30t71.5 -12q69 0 119 37t83 95l108 -70q-53 -99 -129 -155.5t-175 -56.5
q-46 0 -83 12t-69 30t-61 38.5t-59 38.5t-62.5 30t-71.5 12q-69 0 -119 -37t-83 -95z" />
    <glyph glyph-name="AE" unicode="&#xc6;" horiz-adv-x="1708" 
d="M-20 0l654 1651h952v-180h-654v-554h630v-180h-630v-557h654v-180h-858v481h-345l-183 -481h-220zM453 661h275v717z" />
    <glyph glyph-name="B" unicode="B" horiz-adv-x="1310" 
d="M179 0v1650h387q120 0 214.5 -27t159.5 -79.5t99.5 -130t34.5 -179.5q0 -133 -58 -226t-172 -144q182 -26 279.5 -133t97.5 -283q0 -105 -36 -188.5t-103.5 -141t-164.5 -88t-219 -30.5h-519zM637 162q181 0 277 75t96 217q0 71 -25 126.5t-73 93.5t-117 58t-158 20h-254
v-590h254zM525 931q171 0 262 72t91 208q0 137 -90 208t-263 71h-142v-559h142z" />
    <glyph glyph-name="C" unicode="C" horiz-adv-x="1575" 
d="M971 1680q155 0 290.5 -44t238.5 -122l-102 -166q-81 64 -188 97.5t-226 33.5q-149 0 -271 -50.5t-208.5 -138.5t-134 -208t-47.5 -258t47.5 -258t134 -208t208.5 -138.5t271 -50.5q119 0 226 33.5t188 97.5l102 -166q-103 -78 -238.5 -122t-290.5 -44q-126 0 -239 30
t-210 85t-174.5 132.5t-132.5 172.5t-84.5 205.5t-29.5 230.5q0 121 29.5 231t84.5 205t132.5 172.5t174.5 132.5t210 85t239 30z" />
    <glyph glyph-name="Cacute" unicode="&#x106;" horiz-adv-x="1575" 
d="M971 1680q155 0 290.5 -44t238.5 -122l-102 -166q-81 64 -188 97.5t-226 33.5q-149 0 -271 -50.5t-208.5 -138.5t-134 -208t-47.5 -258t47.5 -258t134 -208t208.5 -138.5t271 -50.5q119 0 226 33.5t188 97.5l102 -166q-103 -78 -238.5 -122t-290.5 -44q-126 0 -239 30
t-210 85t-174.5 132.5t-132.5 172.5t-84.5 205.5t-29.5 230.5q0 121 29.5 231t84.5 205t132.5 172.5t174.5 132.5t210 85t239 30zM1094 2185l85 -152l-397 -197l-64 96z" />
    <glyph glyph-name="Ccaron" unicode="&#x10c;" horiz-adv-x="1575" 
d="M971 1680q155 0 290.5 -44t238.5 -122l-102 -166q-81 64 -188 97.5t-226 33.5q-149 0 -271 -50.5t-208.5 -138.5t-134 -208t-47.5 -258t47.5 -258t134 -208t208.5 -138.5t271 -50.5q119 0 226 33.5t188 97.5l102 -166q-103 -78 -238.5 -122t-290.5 -44q-126 0 -239 30
t-210 85t-174.5 132.5t-132.5 172.5t-84.5 205.5t-29.5 230.5q0 121 29.5 231t84.5 205t132.5 172.5t174.5 132.5t210 85t239 30zM890 1831l-385 282l79 107l306 -224l306 224l79 -107z" />
    <glyph glyph-name="Ccedilla" unicode="&#xc7;" horiz-adv-x="1575" 
d="M971 1680q155 0 290.5 -44t238.5 -122l-102 -166q-81 64 -188 97.5t-226 33.5q-149 0 -271 -50.5t-208.5 -138.5t-134 -208t-47.5 -258t47.5 -258t134 -208t208.5 -138.5t271 -50.5q119 0 226 33.5t188 97.5l102 -166q-103 -78 -238.5 -122t-290.5 -44q-126 0 -239 30
t-210 85t-174.5 132.5t-132.5 172.5t-84.5 205.5t-29.5 230.5q0 121 29.5 231t84.5 205t132.5 172.5t174.5 132.5t210 85t239 30zM598 -414l85 59q31 -48 77.5 -74t102.5 -26q63 0 101.5 31.5t38.5 82.5q0 49 -37.5 79t-97.5 30q-32 0 -67.5 -8.5t-57.5 -21.5l-11 8l82 254
h96l-53 -161q8 2 14.5 2h14.5q42 0 83.5 -11t74.5 -33.5t53.5 -57.5t20.5 -83q0 -47 -18.5 -87t-52 -68.5t-80 -44.5t-101.5 -16q-84 0 -152 37.5t-116 108.5z" />
    <glyph glyph-name="Cdotaccent" unicode="&#x10a;" horiz-adv-x="1575" 
d="M971 1680q155 0 290.5 -44t238.5 -122l-102 -166q-81 64 -188 97.5t-226 33.5q-149 0 -271 -50.5t-208.5 -138.5t-134 -208t-47.5 -258t47.5 -258t134 -208t208.5 -138.5t271 -50.5q119 0 226 33.5t188 97.5l102 -166q-103 -78 -238.5 -122t-290.5 -44q-126 0 -239 30
t-210 85t-174.5 132.5t-132.5 172.5t-84.5 205.5t-29.5 230.5q0 121 29.5 231t84.5 205t132.5 172.5t174.5 132.5t210 85t239 30zM768 2102q0 25 9.5 47.5t26 39t39 26t47.5 9.5t47.5 -9.5t39 -26t26 -39t9.5 -47.5t-9.5 -47.5t-26 -39t-39 -26t-47.5 -9.5t-47.5 9.5t-39 26
t-26 39t-9.5 47.5z" />
    <glyph glyph-name="D" unicode="D" horiz-adv-x="1509" 
d="M179 0v1650h396q117 0 224.5 -29t200 -81.5t167.5 -127.5t128.5 -166.5t82.5 -198t29 -222.5t-29 -222.5t-82.5 -198t-128.5 -166.5t-167.5 -127.5t-200 -81.5t-224.5 -29h-396zM555 183q135 0 251 49t201.5 135t134 203.5t48.5 254.5t-48.5 254.5t-134 203.5t-201.5 135
t-251 49h-172v-1284h172z" />
    <glyph glyph-name="Eth" unicode="&#xd0;" horiz-adv-x="1670" 
d="M179 908h161v742h396q117 0 224.5 -29t200 -81.5t167.5 -127.5t128.5 -166.5t82.5 -198t29 -222.5t-29 -222.5t-82.5 -198t-128.5 -166.5t-167.5 -127.5t-199.5 -81.5t-225 -29h-396v742h-161v166zM544 742v-559h172q135 0 251 49t201.5 135t134 203.5t48.5 254.5
t-48.5 254.5t-134 203.5t-201.5 135t-251 49h-172v-559h393v-166h-393z" />
    <glyph glyph-name="Dcaron" unicode="&#x10e;" horiz-adv-x="1509" 
d="M179 0v1650h396q117 0 224.5 -29t200 -81.5t167.5 -127.5t128.5 -166.5t82.5 -198t29 -222.5t-29 -222.5t-82.5 -198t-128.5 -166.5t-167.5 -127.5t-200 -81.5t-224.5 -29h-396zM555 183q135 0 251 49t201.5 135t134 203.5t48.5 254.5t-48.5 254.5t-134 203.5t-201.5 135
t-251 49h-172v-1284h172zM738 1831l-385 282l79 107l306 -224l306 224l79 -107z" />
    <glyph glyph-name="Dcroat" unicode="&#x110;" horiz-adv-x="1670" 
d="M179 908h161v742h396q117 0 224.5 -29t200 -81.5t167.5 -127.5t128.5 -166.5t82.5 -198t29 -222.5t-29 -222.5t-82.5 -198t-128.5 -166.5t-167.5 -127.5t-199.5 -81.5t-225 -29h-396v742h-161v166zM544 742v-559h172q135 0 251 49t201.5 135t134 203.5t48.5 254.5
t-48.5 254.5t-134 203.5t-201.5 135t-251 49h-172v-559h393v-166h-393z" />
    <glyph glyph-name="E" unicode="E" horiz-adv-x="1159" 
d="M1037 1650v-180h-654v-553h630v-180h-630v-557h654v-180h-858v1650h858z" />
    <glyph glyph-name="Eacute" unicode="&#xc9;" horiz-adv-x="1159" 
d="M1037 1650v-180h-654v-553h630v-180h-630v-557h654v-180h-858v1650h858zM819 2185l85 -152l-397 -197l-64 96z" />
    <glyph glyph-name="Ecaron" unicode="&#x11a;" horiz-adv-x="1159" 
d="M1037 1650v-180h-654v-553h630v-180h-630v-557h654v-180h-858v1650h858zM615 1831l-385 282l79 107l306 -224l306 224l79 -107z" />
    <glyph glyph-name="Ecircumflex" unicode="&#xca;" horiz-adv-x="1159" 
d="M1037 1650v-180h-654v-553h630v-180h-630v-557h654v-180h-858v1650h858zM309 1917l-79 107l385 282l385 -282l-79 -107l-306 224z" />
    <glyph glyph-name="Edieresis" unicode="&#xcb;" horiz-adv-x="1159" 
d="M1037 1650v-180h-654v-553h630v-180h-630v-557h654v-180h-858v1650h858zM851 2135q23 0 43 -9t35 -24t24 -35t9 -43t-9 -43t-24 -35t-35 -24t-43 -9t-43 9t-35 24t-24 35t-9 43t9 43t24 35t35 24t43 9zM268 2024q0 23 9 43t24 35t35 24t43 9t43 -9t35 -24t24 -35t9 -43
t-9 -43t-24 -35t-35 -24t-43 -9t-43 9t-35 24t-24 35t-9 43z" />
    <glyph glyph-name="Edotaccent" unicode="&#x116;" horiz-adv-x="1159" 
d="M1037 1650v-180h-654v-553h630v-180h-630v-557h654v-180h-858v1650h858zM493 2102q0 25 9.5 47.5t26 39t39 26t47.5 9.5t47.5 -9.5t39 -26t26 -39t9.5 -47.5t-9.5 -47.5t-26 -39t-39 -26t-47.5 -9.5t-47.5 9.5t-39 26t-26 39t-9.5 47.5z" />
    <glyph glyph-name="Egrave" unicode="&#xc8;" horiz-adv-x="1159" 
d="M1037 1650v-180h-654v-553h630v-180h-630v-557h654v-180h-858v1650h858zM704 1836l-410 204l98 145l376 -253z" />
    <glyph glyph-name="Emacron" unicode="&#x112;" horiz-adv-x="1159" 
d="M1037 1650v-180h-654v-553h630v-180h-630v-557h654v-180h-858v1650h858zM207 1947v136h816v-136h-816z" />
    <glyph glyph-name="Eogonek" unicode="&#x118;" horiz-adv-x="1159" 
d="M1037 1650v-180h-654v-553h630v-180h-630v-557h654v-180h-858v1650h858zM756 -334q0 69 46 154.5t133 179.5h102q-37 -42 -66.5 -84t-49.5 -82t-31 -76.5t-11 -66.5q0 -27 9 -51.5t27.5 -42.5t45.5 -28.5t63 -10.5q96 0 173 90l85 -63q-23 -33 -53.5 -60t-66.5 -45.5
t-75 -28.5t-80 -10q-55 0 -101 17.5t-79.5 48.5t-52 71.5t-18.5 87.5z" />
    <glyph glyph-name="F" unicode="F" horiz-adv-x="1157" 
d="M179 1650h863v-180h-659v-554h613v-180h-613v-736h-204v1650z" />
    <glyph glyph-name="G" unicode="G" horiz-adv-x="1765" 
d="M101 823q0 112 25.5 218.5t74.5 202t120.5 175.5t163 138t202.5 90.5t239 32.5q99 0 186.5 -19.5t164 -55.5t142.5 -86.5t121 -111.5l-129 -119q-40 47 -91.5 85.5t-112 65.5t-129 42t-142.5 15q-147 0 -261.5 -56t-193.5 -149.5t-120 -215t-41 -251.5q0 -92 20.5 -177.5
t59 -159.5t92.5 -135.5t120.5 -105t145 -67.5t164.5 -24q102 0 198.5 34t172 96.5t121.5 150.5t46 197v47h-555v162h763v-153q0 -123 -30.5 -224t-83 -181t-124.5 -139.5t-155.5 -98.5t-174 -58.5t-181.5 -19.5q-117 0 -223 30.5t-197 86t-164.5 133.5t-125.5 173t-80 204.5
t-28 227.5z" />
    <glyph glyph-name="Gbreve" unicode="&#x11e;" horiz-adv-x="1765" 
d="M101 823q0 112 25.5 218.5t74.5 202t120.5 175.5t163 138t202.5 90.5t239 32.5q99 0 186.5 -19.5t164 -55.5t142.5 -86.5t121 -111.5l-129 -119q-40 47 -91.5 85.5t-112 65.5t-129 42t-142.5 15q-147 0 -261.5 -56t-193.5 -149.5t-120 -215t-41 -251.5q0 -92 20.5 -177.5
t59 -159.5t92.5 -135.5t120.5 -105t145 -67.5t164.5 -24q102 0 198.5 34t172 96.5t121.5 150.5t46 197v47h-555v162h763v-153q0 -123 -30.5 -224t-83 -181t-124.5 -139.5t-155.5 -98.5t-174 -58.5t-181.5 -19.5q-117 0 -223 30.5t-197 86t-164.5 133.5t-125.5 173t-80 204.5
t-28 227.5zM477 2270l143 35q9 -49 31.5 -92t58 -75.5t83.5 -51t107 -18.5t107 18.5t83.5 51t58 75.5t31.5 92l143 -35q-12 -74 -48.5 -135t-92 -104.5t-127 -67.5t-155.5 -24t-155.5 24t-127 67.5t-92 104.5t-48.5 135z" />
    <glyph glyph-name="uni0122" unicode="&#x122;" horiz-adv-x="1765" 
d="M101 823q0 112 25.5 218.5t74.5 202t120.5 175.5t163 138t202.5 90.5t239 32.5q99 0 186.5 -19.5t164 -55.5t142.5 -86.5t121 -111.5l-129 -119q-40 47 -91.5 85.5t-112 65.5t-129 42t-142.5 15q-147 0 -261.5 -56t-193.5 -149.5t-120 -215t-41 -251.5q0 -92 20.5 -177.5
t59 -159.5t92.5 -135.5t120.5 -105t145 -67.5t164.5 -24q102 0 198.5 34t172 96.5t121.5 150.5t46 197v47h-555v162h763v-153q0 -123 -30.5 -224t-83 -181t-124.5 -139.5t-155.5 -98.5t-174 -58.5t-181.5 -19.5q-117 0 -223 30.5t-197 86t-164.5 133.5t-125.5 173t-80 204.5
t-28 227.5zM900 -122q40 0 63.5 -27.5t23.5 -78.5q0 -33 -10 -68.5t-27 -69.5t-41 -65t-52 -53l-30 26q23 29 40.5 74t19.5 94q-32 5 -52.5 27.5t-20.5 56.5q0 36 24 60t62 24z" />
    <glyph glyph-name="Gdotaccent" unicode="&#x120;" horiz-adv-x="1765" 
d="M101 823q0 112 25.5 218.5t74.5 202t120.5 175.5t163 138t202.5 90.5t239 32.5q99 0 186.5 -19.5t164 -55.5t142.5 -86.5t121 -111.5l-129 -119q-40 47 -91.5 85.5t-112 65.5t-129 42t-142.5 15q-147 0 -261.5 -56t-193.5 -149.5t-120 -215t-41 -251.5q0 -92 20.5 -177.5
t59 -159.5t92.5 -135.5t120.5 -105t145 -67.5t164.5 -24q102 0 198.5 34t172 96.5t121.5 150.5t46 197v47h-555v162h763v-153q0 -123 -30.5 -224t-83 -181t-124.5 -139.5t-155.5 -98.5t-174 -58.5t-181.5 -19.5q-117 0 -223 30.5t-197 86t-164.5 133.5t-125.5 173t-80 204.5
t-28 227.5zM778 2102q0 25 9.5 47.5t26 39t39 26t47.5 9.5t47.5 -9.5t39 -26t26 -39t9.5 -47.5t-9.5 -47.5t-26 -39t-39 -26t-47.5 -9.5t-47.5 9.5t-39 26t-26 39t-9.5 47.5z" />
    <glyph glyph-name="H" unicode="H" horiz-adv-x="1580" 
d="M383 1650v-733h814v733h204v-1650h-204v737h-814v-737h-204v1650h204z" />
    <glyph glyph-name="Hbar" unicode="&#x126;" horiz-adv-x="1764" 
d="M271 1212v438h204v-438h814v438h204v-438h133v-144h-133v-1068h-204v698h-814v-698h-204v1068h-133v144h133zM475 1068v-226h814v226h-814z" />
    <glyph glyph-name="I" unicode="I" horiz-adv-x="562" 
d="M179 0v1650h204v-1650h-204z" />
    <glyph glyph-name="Iacute" unicode="&#xcd;" horiz-adv-x="562" 
d="M179 0v1650h204v-1650h-204zM485 2185l85 -152l-397 -197l-64 96z" />
    <glyph glyph-name="Icircumflex" unicode="&#xce;" horiz-adv-x="562" 
d="M179 0v1650h204v-1650h-204zM-25 1917l-79 107l385 282l385 -282l-79 -107l-306 224z" />
    <glyph glyph-name="Idieresis" unicode="&#xcf;" horiz-adv-x="562" 
d="M179 0v1650h204v-1650h-204zM517 2135q23 0 43 -9t35 -24t24 -35t9 -43t-9 -43t-24 -35t-35 -24t-43 -9t-43 9t-35 24t-24 35t-9 43t9 43t24 35t35 24t43 9zM-66 2024q0 23 9 43t24 35t35 24t43 9t43 -9t35 -24t24 -35t9 -43t-9 -43t-24 -35t-35 -24t-43 -9t-43 9t-35 24
t-24 35t-9 43z" />
    <glyph glyph-name="Idotaccent" unicode="&#x130;" horiz-adv-x="562" 
d="M179 0v1650h204v-1650h-204zM159 2102q0 25 9.5 47.5t26 39t39 26t47.5 9.5t47.5 -9.5t39 -26t26 -39t9.5 -47.5t-9.5 -47.5t-26 -39t-39 -26t-47.5 -9.5t-47.5 9.5t-39 26t-26 39t-9.5 47.5z" />
    <glyph glyph-name="Igrave" unicode="&#xcc;" horiz-adv-x="562" 
d="M179 0v1650h204v-1650h-204zM370 1836l-410 204l98 145l376 -253z" />
    <glyph glyph-name="Imacron" unicode="&#x12a;" horiz-adv-x="562" 
d="M179 0v1650h204v-1650h-204zM-127 1947v136h816v-136h-816z" />
    <glyph glyph-name="Iogonek" unicode="&#x12e;" horiz-adv-x="562" 
d="M179 0v1650h204v-1650h-204zM102 -334q0 69 46 154.5t133 179.5h102q-37 -42 -66.5 -84t-49.5 -82t-31 -76.5t-11 -66.5q0 -27 9 -51.5t27.5 -42.5t45.5 -28.5t63 -10.5q96 0 173 90l85 -63q-23 -33 -53.5 -60t-66.5 -45.5t-75 -28.5t-80 -10q-55 0 -101 17.5t-79.5 48.5
t-52 71.5t-18.5 87.5z" />
    <glyph glyph-name="J" unicode="J" horiz-adv-x="1030" 
d="M75 285q61 -63 129.5 -92.5t145.5 -29.5q75 0 133.5 24t99 70t61.5 112.5t21 151.5v1129h204v-1186q0 -117 -33.5 -209.5t-97 -156t-155 -97t-207.5 -33.5q-124 0 -224 44.5t-190 141.5z" />
    <glyph glyph-name="K" unicode="K" horiz-adv-x="1410" 
d="M178 0v1650h204v-735l699 735h254l-772 -810l860 -840h-284l-757 733v-733h-204z" />
    <glyph glyph-name="uni0136" unicode="&#x136;" horiz-adv-x="1410" 
d="M178 0v1650h204v-735l699 735h254l-772 -810l860 -840h-284l-757 733v-733h-204zM703 -122q40 0 63.5 -27.5t23.5 -78.5q0 -33 -10 -68.5t-27 -69.5t-41 -65t-52 -53l-30 26q23 29 40.5 74t19.5 94q-32 5 -52.5 27.5t-20.5 56.5q0 36 24 60t62 24z" />
    <glyph glyph-name="L" unicode="L" horiz-adv-x="1085" 
d="M179 0v1650h204v-1470h662v-180h-866z" />
    <glyph glyph-name="Lacute" unicode="&#x139;" horiz-adv-x="1085" 
d="M179 0v1650h204v-1470h662v-180h-866zM729 2185l85 -152l-397 -197l-64 96z" />
    <glyph glyph-name="Lcaron" unicode="&#x13d;" horiz-adv-x="1085" 
d="M179 0v1650h204v-1470h662v-180h-866zM525 1831l-385 282l79 107l306 -224l306 224l79 -107z" />
    <glyph glyph-name="uni013B" unicode="&#x13b;" horiz-adv-x="1085" 
d="M179 0v1650h204v-1470h662v-180h-866zM584 -122q40 0 63.5 -27.5t23.5 -78.5q0 -33 -10 -68.5t-27 -69.5t-41 -65t-52 -53l-30 26q23 29 40.5 74t19.5 94q-32 5 -52.5 27.5t-20.5 56.5q0 36 24 60t62 24z" />
    <glyph glyph-name="Lslash" unicode="&#x141;" horiz-adv-x="1215" 
d="M309 827v823h204v-662l243 191v-166l-243 -191v-642h662v-180h-866v661l-130 -102v166z" />
    <glyph glyph-name="M" unicode="M" horiz-adv-x="1907" 
d="M80 0l198 1650h218l457 -1212l457 1212h218l199 -1650h-204l-159 1277l-442 -1195h-137l-443 1195l-158 -1277h-204z" />
    <glyph glyph-name="N" unicode="N" horiz-adv-x="1600" 
d="M383 1650l834 -1306v1306h204v-1650h-204l-834 1305v-1305h-204v1650h204z" />
    <glyph glyph-name="Nacute" unicode="&#x143;" horiz-adv-x="1600" 
d="M383 1650l834 -1306v1306h204v-1650h-204l-834 1305v-1305h-204v1650h204zM1004 2185l85 -152l-397 -197l-64 96z" />
    <glyph glyph-name="Ncaron" unicode="&#x147;" horiz-adv-x="1600" 
d="M383 1650l834 -1306v1306h204v-1650h-204l-834 1305v-1305h-204v1650h204zM800 1831l-385 282l79 107l306 -224l306 224l79 -107z" />
    <glyph glyph-name="uni0145" unicode="&#x145;" horiz-adv-x="1600" 
d="M383 1650l834 -1306v1306h204v-1650h-204l-834 1305v-1305h-204v1650h204zM800 -122q40 0 63.5 -27.5t23.5 -78.5q0 -33 -10 -68.5t-27 -69.5t-41 -65t-52 -53l-30 26q23 29 40.5 74t19.5 94q-32 5 -52.5 27.5t-20.5 56.5q0 36 24 60t62 24z" />
    <glyph glyph-name="Eng" unicode="&#x14a;" horiz-adv-x="1581" 
d="M179 0v1650h204l833 -1306v1306h204v-1705q0 -117 -33.5 -209.5t-97.5 -156t-155 -97t-207 -33.5q-64 0 -120.5 11t-107 33.5t-96.5 57.5t-90 84l113 131q63 -66 133 -94t142 -28q76 0 135 24.5t99 68.5t60.5 106.5t20.5 137.5v19l-833 1305v-1305h-204z" />
    <glyph glyph-name="Ntilde" unicode="&#xd1;" horiz-adv-x="1600" 
d="M383 1650l834 -1306v1306h204v-1650h-204l-834 1305v-1305h-204v1650h204zM290 1963q53 99 129 155.5t175 56.5q46 0 83 -12t69 -30t61 -38.5t59 -38.5t62.5 -30t71.5 -12q69 0 119 37t83 95l108 -70q-53 -99 -129 -155.5t-175 -56.5q-46 0 -83 12t-69 30t-61 38.5
t-59 38.5t-62.5 30t-71.5 12q-69 0 -119 -37t-83 -95z" />
    <glyph glyph-name="O" unicode="O" horiz-adv-x="1868" 
d="M102 824q0 119 29.5 228.5t83.5 205t130 173t168 133t199 86t222 30.5q116 0 222.5 -30.5t198.5 -86t168 -133t130 -173t83.5 -205t29.5 -228.5t-29.5 -228.5t-83.5 -205t-130 -173t-168 -133t-199 -86t-222 -30.5t-222 30.5t-199 86t-168 133t-130 173t-83.5 205
t-29.5 228.5zM322 824q0 -140 47 -260.5t129 -209t194 -139t242 -50.5t242 50.5t194 139t129 209t47 260.5t-47 260.5t-129 209t-194 139t-242 50.5t-242 -50.5t-194 -139t-129 -209t-47 -260.5z" />
    <glyph glyph-name="Oacute" unicode="&#xd3;" horiz-adv-x="1868" 
d="M102 824q0 119 29.5 228.5t83.5 205t130 173t168 133t199 86t222 30.5q116 0 222.5 -30.5t198.5 -86t168 -133t130 -173t83.5 -205t29.5 -228.5t-29.5 -228.5t-83.5 -205t-130 -173t-168 -133t-199 -86t-222 -30.5t-222 30.5t-199 86t-168 133t-130 173t-83.5 205
t-29.5 228.5zM322 824q0 -140 47 -260.5t129 -209t194 -139t242 -50.5t242 50.5t194 139t129 209t47 260.5t-47 260.5t-129 209t-194 139t-242 50.5t-242 -50.5t-194 -139t-129 -209t-47 -260.5zM1138 2185l85 -152l-397 -197l-64 96z" />
    <glyph glyph-name="Ocircumflex" unicode="&#xd4;" horiz-adv-x="1868" 
d="M102 824q0 119 29.5 228.5t83.5 205t130 173t168 133t199 86t222 30.5q116 0 222.5 -30.5t198.5 -86t168 -133t130 -173t83.5 -205t29.5 -228.5t-29.5 -228.5t-83.5 -205t-130 -173t-168 -133t-199 -86t-222 -30.5t-222 30.5t-199 86t-168 133t-130 173t-83.5 205
t-29.5 228.5zM322 824q0 -140 47 -260.5t129 -209t194 -139t242 -50.5t242 50.5t194 139t129 209t47 260.5t-47 260.5t-129 209t-194 139t-242 50.5t-242 -50.5t-194 -139t-129 -209t-47 -260.5zM628 1917l-79 107l385 282l385 -282l-79 -107l-306 224z" />
    <glyph glyph-name="Odieresis" unicode="&#xd6;" horiz-adv-x="1868" 
d="M102 824q0 119 29.5 228.5t83.5 205t130 173t168 133t199 86t222 30.5q116 0 222.5 -30.5t198.5 -86t168 -133t130 -173t83.5 -205t29.5 -228.5t-29.5 -228.5t-83.5 -205t-130 -173t-168 -133t-199 -86t-222 -30.5t-222 30.5t-199 86t-168 133t-130 173t-83.5 205
t-29.5 228.5zM322 824q0 -140 47 -260.5t129 -209t194 -139t242 -50.5t242 50.5t194 139t129 209t47 260.5t-47 260.5t-129 209t-194 139t-242 50.5t-242 -50.5t-194 -139t-129 -209t-47 -260.5zM1170 2135q23 0 43 -9t35 -24t24 -35t9 -43t-9 -43t-24 -35t-35 -24t-43 -9
t-43 9t-35 24t-24 35t-9 43t9 43t24 35t35 24t43 9zM587 2024q0 23 9 43t24 35t35 24t43 9t43 -9t35 -24t24 -35t9 -43t-9 -43t-24 -35t-35 -24t-43 -9t-43 9t-35 24t-24 35t-9 43z" />
    <glyph glyph-name="Ograve" unicode="&#xd2;" horiz-adv-x="1868" 
d="M102 824q0 119 29.5 228.5t83.5 205t130 173t168 133t199 86t222 30.5q116 0 222.5 -30.5t198.5 -86t168 -133t130 -173t83.5 -205t29.5 -228.5t-29.5 -228.5t-83.5 -205t-130 -173t-168 -133t-199 -86t-222 -30.5t-222 30.5t-199 86t-168 133t-130 173t-83.5 205
t-29.5 228.5zM322 824q0 -140 47 -260.5t129 -209t194 -139t242 -50.5t242 50.5t194 139t129 209t47 260.5t-47 260.5t-129 209t-194 139t-242 50.5t-242 -50.5t-194 -139t-129 -209t-47 -260.5zM1023 1836l-410 204l98 145l376 -253z" />
    <glyph glyph-name="Ohungarumlaut" unicode="&#x150;" horiz-adv-x="1868" 
d="M102 824q0 119 29.5 228.5t83.5 205t130 173t168 133t199 86t222 30.5q116 0 222.5 -30.5t198.5 -86t168 -133t130 -173t83.5 -205t29.5 -228.5t-29.5 -228.5t-83.5 -205t-130 -173t-168 -133t-199 -86t-222 -30.5t-222 30.5t-199 86t-168 133t-130 173t-83.5 205
t-29.5 228.5zM322 824q0 -140 47 -260.5t129 -209t194 -139t242 -50.5t242 50.5t194 139t129 209t47 260.5t-47 260.5t-129 209t-194 139t-242 50.5t-242 -50.5t-194 -139t-129 -209t-47 -260.5zM1092 1957l-83 94l256 254l132 -140zM692 1957l-83 94l257 254l131 -140z" />
    <glyph glyph-name="Omacron" unicode="&#x14c;" horiz-adv-x="1868" 
d="M102 824q0 119 29.5 228.5t83.5 205t130 173t168 133t199 86t222 30.5q116 0 222.5 -30.5t198.5 -86t168 -133t130 -173t83.5 -205t29.5 -228.5t-29.5 -228.5t-83.5 -205t-130 -173t-168 -133t-199 -86t-222 -30.5t-222 30.5t-199 86t-168 133t-130 173t-83.5 205
t-29.5 228.5zM322 824q0 -140 47 -260.5t129 -209t194 -139t242 -50.5t242 50.5t194 139t129 209t47 260.5t-47 260.5t-129 209t-194 139t-242 50.5t-242 -50.5t-194 -139t-129 -209t-47 -260.5zM526 1947v136h816v-136h-816z" />
    <glyph glyph-name="Oslash" unicode="&#xd8;" horiz-adv-x="1868" 
d="M513 84l-73 -93l-127 95l73 92q-66 59 -118.5 131t-89 154t-56.5 173t-20 188q0 119 29.5 228.5t83.5 205t130 173t168 133t199 86t222 30.5q142 0 268.5 -44.5t231.5 -125.5l128 163l128 -98l-138 -175q100 -115 157 -261.5t57 -314.5q0 -119 -29.5 -228.5t-83.5 -205
t-130 -173t-168 -133t-199 -86t-222 -30.5q-116 0 -221.5 30t-199.5 86zM1309 1351q-78 63 -172.5 97.5t-202.5 34.5q-130 0 -242 -50.5t-194 -139t-129 -209t-47 -260.5q0 -147 50.5 -271t139.5 -214zM934 165q130 0 242 50.5t194 139t129 209t47 260.5q0 118 -33 221
t-93 188l-781 -990q65 -38 139.5 -58t155.5 -20z" />
    <glyph glyph-name="Otilde" unicode="&#xd5;" horiz-adv-x="1868" 
d="M102 824q0 119 29.5 228.5t83.5 205t130 173t168 133t199 86t222 30.5q116 0 222.5 -30.5t198.5 -86t168 -133t130 -173t83.5 -205t29.5 -228.5t-29.5 -228.5t-83.5 -205t-130 -173t-168 -133t-199 -86t-222 -30.5t-222 30.5t-199 86t-168 133t-130 173t-83.5 205
t-29.5 228.5zM322 824q0 -140 47 -260.5t129 -209t194 -139t242 -50.5t242 50.5t194 139t129 209t47 260.5t-47 260.5t-129 209t-194 139t-242 50.5t-242 -50.5t-194 -139t-129 -209t-47 -260.5zM424 1963q53 99 129 155.5t175 56.5q46 0 83 -12t69 -30t61 -38.5t59 -38.5
t62.5 -30t71.5 -12q69 0 119 37t83 95l108 -70q-53 -99 -129 -155.5t-175 -56.5q-46 0 -83 12t-69 30t-61 38.5t-59 38.5t-62.5 30t-71.5 12q-69 0 -119 -37t-83 -95z" />
    <glyph glyph-name="OE" unicode="&#x152;" horiz-adv-x="1958" 
d="M102 825q0 178 64 329t182.5 261.5t287 172.5t376.5 62h824v-179h-654v-554h630v-180h-630v-557h654v-180h-824q-139 0 -260 28t-222.5 80.5t-181 126.5t-134 165.5t-83.5 199t-29 225.5zM322 825q0 -140 48 -258t134.5 -203.5t207 -133t266.5 -47.5v1284
q-142 0 -262.5 -47.5t-208 -133t-136.5 -203.5t-49 -258z" />
    <glyph glyph-name="P" unicode="P" horiz-adv-x="1284" 
d="M647 1650q121 0 220 -33.5t169 -96.5t108 -153t38 -203t-38 -203t-108 -153t-169 -96.5t-220 -33.5h-264v-678h-204v1650h468zM383 842h209q84 0 153.5 21t120 62t78 101t27.5 138t-27.5 138t-78 101t-120 62t-153.5 21h-209v-644z" />
    <glyph glyph-name="Thorn" unicode="&#xde;" horiz-adv-x="1284" 
d="M383 1650v-345h264q121 0 220 -33.5t169 -96.5t108 -153t38 -203t-38 -203t-108 -153t-169 -96.5t-220 -33.5h-264v-333h-204v1650h204zM592 497q84 0 153.5 21t120 62t78 101t27.5 138t-27.5 138t-78 101t-120 62t-153.5 21h-209v-644h209z" />
    <glyph glyph-name="Q" unicode="Q" horiz-adv-x="1927" 
d="M102 823q0 119 29.5 228.5t83.5 205t130 173t168 133t199 86t222 30.5q116 0 222.5 -30.5t198.5 -86t168 -133t130 -173t83.5 -205t29.5 -228.5q0 -161 -52 -302.5t-145 -253.5q76 -42 155.5 -76.5t162.5 -61.5l-91 -183q-90 36 -180 85t-178 109q-106 -82 -233.5 -127.5
t-270.5 -45.5q-115 0 -222 30.5t-199 86t-168 133t-130 173t-83.5 205t-29.5 228.5zM322 823q0 -140 47 -260.5t129 -209t194 -139t242 -50.5q94 0 178.5 26.5t156.5 75.5q-142 118 -253 247l109 86q62 -61 128 -116.5t138 -105.5q73 88 114 201.5t41 244.5q0 140 -47 260.5
t-129 209t-194 139t-242 50.5t-242 -50.5t-194 -139t-129 -209t-47 -260.5z" />
    <glyph glyph-name="R" unicode="R" horiz-adv-x="1325" 
d="M647 1650q123 0 222 -33.5t168.5 -96.5t107 -152.5t37.5 -201.5q0 -98 -29 -179t-83 -142t-131.5 -100t-175.5 -54l544 -691h-259l-511 673h-154v-673h-204v1650h468zM383 846h209q89 0 159.5 22t119.5 63.5t74.5 100.5t25.5 134t-25.5 134t-74.5 100.5t-119.5 63.5
t-159.5 22h-209v-640z" />
    <glyph glyph-name="Racute" unicode="&#x154;" horiz-adv-x="1325" 
d="M647 1650q123 0 222 -33.5t168.5 -96.5t107 -152.5t37.5 -201.5q0 -98 -29 -179t-83 -142t-131.5 -100t-175.5 -54l544 -691h-259l-511 673h-154v-673h-204v1650h468zM383 846h209q89 0 159.5 22t119.5 63.5t74.5 100.5t25.5 134t-25.5 134t-74.5 100.5t-119.5 63.5
t-159.5 22h-209v-640zM843 2185l85 -152l-397 -197l-64 96z" />
    <glyph glyph-name="Rcaron" unicode="&#x158;" horiz-adv-x="1325" 
d="M647 1650q123 0 222 -33.5t168.5 -96.5t107 -152.5t37.5 -201.5q0 -98 -29 -179t-83 -142t-131.5 -100t-175.5 -54l544 -691h-259l-511 673h-154v-673h-204v1650h468zM383 846h209q89 0 159.5 22t119.5 63.5t74.5 100.5t25.5 134t-25.5 134t-74.5 100.5t-119.5 63.5
t-159.5 22h-209v-640zM639 1831l-385 282l79 107l306 -224l306 224l79 -107z" />
    <glyph glyph-name="uni0156" unicode="&#x156;" horiz-adv-x="1325" 
d="M647 1650q123 0 222 -33.5t168.5 -96.5t107 -152.5t37.5 -201.5q0 -98 -29 -179t-83 -142t-131.5 -100t-175.5 -54l544 -691h-259l-511 673h-154v-673h-204v1650h468zM383 846h209q89 0 159.5 22t119.5 63.5t74.5 100.5t25.5 134t-25.5 134t-74.5 100.5t-119.5 63.5
t-159.5 22h-209v-640zM639 -122q40 0 63.5 -27.5t23.5 -78.5q0 -33 -10 -68.5t-27 -69.5t-41 -65t-52 -53l-30 26q23 29 40.5 74t19.5 94q-32 5 -52.5 27.5t-20.5 56.5q0 36 24 60t62 24z" />
    <glyph glyph-name="S" unicode="S" horiz-adv-x="1311" 
d="M92 269l141 102q39 -48 87.5 -87.5t103.5 -68t115 -44t122 -15.5q66 0 125.5 19t104.5 55t71.5 88.5t26.5 120.5q0 58 -20 104.5t-65 87t-118.5 78t-181.5 77.5q-214 80 -315 190.5t-101 259.5q0 92 35.5 172.5t99.5 141t154 95.5t199 35q75 0 142 -17.5t123 -46t100 -65
t72 -74.5l-128 -113q-26 26 -59.5 49.5t-73.5 41.5t-85 28.5t-94 10.5q-69 0 -122.5 -21t-90.5 -56t-56 -81.5t-19 -96.5q0 -46 18.5 -86.5t57.5 -76.5t100 -69t147 -64q125 -45 218.5 -94t155.5 -107.5t93.5 -131t31.5 -165.5q0 -114 -41.5 -203t-114.5 -149.5
t-170.5 -92.5t-210.5 -32q-96 0 -185 23.5t-164 64t-134 95.5t-95 118z" />
    <glyph glyph-name="Sacute" unicode="&#x15a;" horiz-adv-x="1311" 
d="M92 269l141 102q39 -48 87.5 -87.5t103.5 -68t115 -44t122 -15.5q66 0 125.5 19t104.5 55t71.5 88.5t26.5 120.5q0 58 -20 104.5t-65 87t-118.5 78t-181.5 77.5q-214 80 -315 190.5t-101 259.5q0 92 35.5 172.5t99.5 141t154 95.5t199 35q75 0 142 -17.5t123 -46t100 -65
t72 -74.5l-128 -113q-26 26 -59.5 49.5t-73.5 41.5t-85 28.5t-94 10.5q-69 0 -122.5 -21t-90.5 -56t-56 -81.5t-19 -96.5q0 -46 18.5 -86.5t57.5 -76.5t100 -69t147 -64q125 -45 218.5 -94t155.5 -107.5t93.5 -131t31.5 -165.5q0 -114 -41.5 -203t-114.5 -149.5
t-170.5 -92.5t-210.5 -32q-96 0 -185 23.5t-164 64t-134 95.5t-95 118zM895 2203l85 -152l-397 -197l-64 96z" />
    <glyph glyph-name="Scaron" unicode="&#x160;" horiz-adv-x="1311" 
d="M92 269l141 102q39 -48 87.5 -87.5t103.5 -68t115 -44t122 -15.5q66 0 125.5 19t104.5 55t71.5 88.5t26.5 120.5q0 58 -20 104.5t-65 87t-118.5 78t-181.5 77.5q-214 80 -315 190.5t-101 259.5q0 92 35.5 172.5t99.5 141t154 95.5t199 35q75 0 142 -17.5t123 -46t100 -65
t72 -74.5l-128 -113q-26 26 -59.5 49.5t-73.5 41.5t-85 28.5t-94 10.5q-69 0 -122.5 -21t-90.5 -56t-56 -81.5t-19 -96.5q0 -46 18.5 -86.5t57.5 -76.5t100 -69t147 -64q125 -45 218.5 -94t155.5 -107.5t93.5 -131t31.5 -165.5q0 -114 -41.5 -203t-114.5 -149.5
t-170.5 -92.5t-210.5 -32q-96 0 -185 23.5t-164 64t-134 95.5t-95 118zM691 1849l-385 282l79 107l306 -224l306 224l79 -107z" />
    <glyph glyph-name="Scedilla" unicode="&#x15e;" horiz-adv-x="1311" 
d="M92 269l141 102q39 -48 87.5 -87.5t103.5 -68t115 -44t122 -15.5q66 0 125.5 19t104.5 55t71.5 88.5t26.5 120.5q0 58 -20 104.5t-65 87t-118.5 78t-181.5 77.5q-214 80 -315 190.5t-101 259.5q0 92 35.5 172.5t99.5 141t154 95.5t199 35q75 0 142 -17.5t123 -46t100 -65
t72 -74.5l-128 -113q-26 26 -59.5 49.5t-73.5 41.5t-85 28.5t-94 10.5q-69 0 -122.5 -21t-90.5 -56t-56 -81.5t-19 -96.5q0 -46 18.5 -86.5t57.5 -76.5t100 -69t147 -64q125 -45 218.5 -94t155.5 -107.5t93.5 -131t31.5 -165.5q0 -114 -41.5 -203t-114.5 -149.5
t-170.5 -92.5t-210.5 -32q-96 0 -185 23.5t-164 64t-134 95.5t-95 118zM402 -414l85 59q31 -48 77.5 -74t102.5 -26q63 0 101.5 31.5t38.5 82.5q0 49 -37.5 79t-97.5 30q-32 0 -67.5 -8.5t-57.5 -21.5l-11 8l82 254h96l-53 -161q8 2 14.5 2h14.5q42 0 83.5 -11t74.5 -33.5
t53.5 -57.5t20.5 -83q0 -47 -18.5 -87t-52 -68.5t-80 -44.5t-101.5 -16q-84 0 -152 37.5t-116 108.5z" />
    <glyph glyph-name="uni0218" unicode="&#x218;" horiz-adv-x="1311" 
d="M92 269l141 102q39 -48 87.5 -87.5t103.5 -68t115 -44t122 -15.5q66 0 125.5 19t104.5 55t71.5 88.5t26.5 120.5q0 58 -20 104.5t-65 87t-118.5 78t-181.5 77.5q-214 80 -315 190.5t-101 259.5q0 92 35.5 172.5t99.5 141t154 95.5t199 35q75 0 142 -17.5t123 -46t100 -65
t72 -74.5l-128 -113q-26 26 -59.5 49.5t-73.5 41.5t-85 28.5t-94 10.5q-69 0 -122.5 -21t-90.5 -56t-56 -81.5t-19 -96.5q0 -46 18.5 -86.5t57.5 -76.5t100 -69t147 -64q125 -45 218.5 -94t155.5 -107.5t93.5 -131t31.5 -165.5q0 -114 -41.5 -203t-114.5 -149.5
t-170.5 -92.5t-210.5 -32q-96 0 -185 23.5t-164 64t-134 95.5t-95 118zM682 -122q40 0 63.5 -27.5t23.5 -78.5q0 -33 -10 -68.5t-27 -69.5t-41 -65t-52 -53l-30 26q23 29 40.5 74t19.5 94q-32 5 -52.5 27.5t-20.5 56.5q0 36 24 60t62 24z" />
    <glyph glyph-name="Germandbls" unicode="&#x1e9e;" horiz-adv-x="1476" 
d="M179 1031q0 151 36 271.5t104.5 204.5t168 129t227.5 45q99 0 183.5 -27.5t146.5 -80.5t97 -130.5t35 -178.5q0 -66 -14 -114.5t-35.5 -85t-46.5 -63t-46.5 -47t-35.5 -37.5t-14 -36q0 -26 28.5 -46.5t71.5 -43t93.5 -52t93.5 -74t71.5 -108t28.5 -154.5
q0 -99 -36 -178.5t-98.5 -136t-147 -87t-182.5 -30.5q-94 0 -188 30.5t-197 92.5l102 164q72 -44 137 -67.5t136 -23.5q59 0 108.5 17.5t86 50t57 78.5t20.5 104q0 51 -17.5 88.5t-45.5 65.5t-64.5 49t-74 39.5t-74 37t-64.5 41t-45.5 52t-17.5 69.5q0 39 15 66t37.5 50
t48.5 45t48.5 50t37.5 66t15 92q0 62 -20.5 109.5t-56.5 79.5t-85 48t-106 16q-78 0 -137 -29.5t-99.5 -85t-61 -136.5t-20.5 -184v-1046h-204v1031z" />
    <glyph glyph-name="T" unicode="T" horiz-adv-x="1180" 
d="M10 1650h1160v-183h-478v-1467h-204v1467h-478v183z" />
    <glyph glyph-name="Tbar" unicode="&#x166;" horiz-adv-x="1180" 
d="M10 1467v183h1160v-183h-478v-443h273v-144h-273v-880h-204v880h-273v144h273v443h-478z" />
    <glyph glyph-name="Tcaron" unicode="&#x164;" horiz-adv-x="1180" 
d="M10 1650h1160v-183h-478v-1467h-204v1467h-478v183zM590 1831l-385 282l79 107l306 -224l306 224l79 -107z" />
    <glyph glyph-name="uni0162" unicode="&#x162;" horiz-adv-x="1180" 
d="M10 1650h1160v-183h-478v-1467h-204v1467h-478v183zM590 -122q40 0 63.5 -27.5t23.5 -78.5q0 -33 -10 -68.5t-27 -69.5t-41 -65t-52 -53l-30 26q23 29 40.5 74t19.5 94q-32 5 -52.5 27.5t-20.5 56.5q0 36 24 60t62 24z" />
    <glyph glyph-name="uni021A" unicode="&#x21a;" horiz-adv-x="1180" 
d="M10 1650h1160v-183h-478v-1467h-204v1467h-478v183zM590 -122q40 0 63.5 -27.5t23.5 -78.5q0 -33 -10 -68.5t-27 -69.5t-41 -65t-52 -53l-30 26q23 29 40.5 74t19.5 94q-32 5 -52.5 27.5t-20.5 56.5q0 36 24 60t62 24z" />
    <glyph glyph-name="U" unicode="U" horiz-adv-x="1497" 
d="M160 1650h204v-1010q0 -241 94.5 -356t289.5 -115q196 0 290.5 115t94.5 356v1010h204v-1061q0 -309 -148 -465t-441 -156q-292 0 -440 156t-148 465v1061z" />
    <glyph glyph-name="Uacute" unicode="&#xda;" horiz-adv-x="1497" 
d="M160 1650h204v-1010q0 -241 94.5 -356t289.5 -115q196 0 290.5 115t94.5 356v1010h204v-1061q0 -309 -148 -465t-441 -156q-292 0 -440 156t-148 465v1061zM952 2185l85 -152l-397 -197l-64 96z" />
    <glyph glyph-name="Ucircumflex" unicode="&#xdb;" horiz-adv-x="1497" 
d="M160 1650h204v-1010q0 -241 94.5 -356t289.5 -115q196 0 290.5 115t94.5 356v1010h204v-1061q0 -309 -148 -465t-441 -156q-292 0 -440 156t-148 465v1061zM442 1917l-79 107l385 282l385 -282l-79 -107l-306 224z" />
    <glyph glyph-name="Udieresis" unicode="&#xdc;" horiz-adv-x="1497" 
d="M160 1650h204v-1010q0 -241 94.5 -356t289.5 -115q196 0 290.5 115t94.5 356v1010h204v-1061q0 -309 -148 -465t-441 -156q-292 0 -440 156t-148 465v1061zM984 2135q23 0 43 -9t35 -24t24 -35t9 -43t-9 -43t-24 -35t-35 -24t-43 -9t-43 9t-35 24t-24 35t-9 43t9 43
t24 35t35 24t43 9zM401 2024q0 23 9 43t24 35t35 24t43 9t43 -9t35 -24t24 -35t9 -43t-9 -43t-24 -35t-35 -24t-43 -9t-43 9t-35 24t-24 35t-9 43z" />
    <glyph glyph-name="Ugrave" unicode="&#xd9;" horiz-adv-x="1497" 
d="M160 1650h204v-1010q0 -241 94.5 -356t289.5 -115q196 0 290.5 115t94.5 356v1010h204v-1061q0 -309 -148 -465t-441 -156q-292 0 -440 156t-148 465v1061zM837 1836l-410 204l98 145l376 -253z" />
    <glyph glyph-name="Uhungarumlaut" unicode="&#x170;" horiz-adv-x="1497" 
d="M160 1650h204v-1010q0 -241 94.5 -356t289.5 -115q196 0 290.5 115t94.5 356v1010h204v-1061q0 -309 -148 -465t-441 -156q-292 0 -440 156t-148 465v1061zM906 1957l-83 94l256 254l132 -140zM506 1957l-83 94l257 254l131 -140z" />
    <glyph glyph-name="Umacron" unicode="&#x16a;" horiz-adv-x="1497" 
d="M160 1650h204v-1010q0 -241 94.5 -356t289.5 -115q196 0 290.5 115t94.5 356v1010h204v-1061q0 -309 -148 -465t-441 -156q-292 0 -440 156t-148 465v1061zM340 1947v136h816v-136h-816z" />
    <glyph glyph-name="Uogonek" unicode="&#x172;" horiz-adv-x="1497" 
d="M364 1650v-1010q0 -241 94.5 -356t289.5 -115q196 0 290.5 115t94.5 356v1010h204v-1061q0 -340 -179 -495q-58 -50 -105 -104.5t-80 -108t-51 -102.5t-18 -88q0 -27 9 -51.5t27.5 -42.5t45.5 -28.5t63 -10.5q96 0 173 90l85 -63q-23 -33 -53.5 -60t-66.5 -45.5
t-75 -28.5t-80 -10q-55 0 -101 17.5t-79.5 48.5t-52 71.5t-18.5 87.5q0 68 44 150.5t127 174.5q-94 -23 -204 -23q-292 0 -440 156t-148 465v1061h204z" />
    <glyph glyph-name="Uring" unicode="&#x16e;" horiz-adv-x="1497" 
d="M160 1650h204v-1010q0 -241 94.5 -356t289.5 -115q196 0 290.5 115t94.5 356v1010h204v-1061q0 -309 -148 -465t-441 -156q-292 0 -440 156t-148 465v1061zM495 2090q0 49 19.5 90t53.5 71t80.5 46.5t99.5 16.5t99.5 -16.5t80.5 -46.5t53.5 -71t19.5 -90t-19.5 -90
t-53.5 -71t-80.5 -46.5t-99.5 -16.5t-99.5 16.5t-80.5 46.5t-53.5 71t-19.5 90zM616 2090q0 -26 10 -48t28 -38.5t42 -26t52 -9.5t52 9.5t42 26t28 38.5t10 48t-10 48t-28 38.5t-42 26t-52 9.5t-52 -9.5t-42 -26t-28 -38.5t-10 -48z" />
    <glyph glyph-name="V" unicode="V" horiz-adv-x="1505" 
d="M-20 1650h230l542 -1343l541 1343h231l-692 -1650h-160z" />
    <glyph glyph-name="W" unicode="W" horiz-adv-x="2223" 
d="M-20 1650h227l382 -1378l444 1378h156l444 -1378l382 1378h227l-486 -1650h-228l-417 1253l-417 -1253h-228z" />
    <glyph glyph-name="Wacute" unicode="&#x1e82;" horiz-adv-x="2223" 
d="M-20 1650h227l382 -1378l444 1378h156l444 -1378l382 1378h227l-486 -1650h-228l-417 1253l-417 -1253h-228zM1315 2185l85 -152l-397 -197l-64 96z" />
    <glyph glyph-name="Wcircumflex" unicode="&#x174;" horiz-adv-x="2223" 
d="M-20 1650h227l382 -1378l444 1378h156l444 -1378l382 1378h227l-486 -1650h-228l-417 1253l-417 -1253h-228zM805 1917l-79 107l385 282l385 -282l-79 -107l-306 224z" />
    <glyph glyph-name="Wdieresis" unicode="&#x1e84;" horiz-adv-x="2223" 
d="M-20 1650h227l382 -1378l444 1378h156l444 -1378l382 1378h227l-486 -1650h-228l-417 1253l-417 -1253h-228zM1347 2135q23 0 43 -9t35 -24t24 -35t9 -43t-9 -43t-24 -35t-35 -24t-43 -9t-43 9t-35 24t-24 35t-9 43t9 43t24 35t35 24t43 9zM764 2024q0 23 9 43t24 35
t35 24t43 9t43 -9t35 -24t24 -35t9 -43t-9 -43t-24 -35t-35 -24t-43 -9t-43 9t-35 24t-24 35t-9 43z" />
    <glyph glyph-name="Wgrave" unicode="&#x1e80;" horiz-adv-x="2223" 
d="M-20 1650h227l382 -1378l444 1378h156l444 -1378l382 1378h227l-486 -1650h-228l-417 1253l-417 -1253h-228zM1200 1836l-410 204l98 145l376 -253z" />
    <glyph glyph-name="X" unicode="X" horiz-adv-x="1471" 
d="M-20 0l628 890l-530 760h245l412 -589l412 589h245l-530 -760l628 -890h-254l-501 713l-501 -713h-254z" />
    <glyph glyph-name="Y" unicode="Y" horiz-adv-x="1319" 
d="M226 1650l433 -716l433 716h246l-577 -929v-721h-204v721l-577 929h246z" />
    <glyph glyph-name="Yacute" unicode="&#xdd;" horiz-adv-x="1319" 
d="M226 1650l433 -716l433 716h246l-577 -929v-721h-204v721l-577 929h246zM863 2185l85 -152l-397 -197l-64 96z" />
    <glyph glyph-name="Ycircumflex" unicode="&#x176;" horiz-adv-x="1319" 
d="M226 1650l433 -716l433 716h246l-577 -929v-721h-204v721l-577 929h246zM353 1917l-79 107l385 282l385 -282l-79 -107l-306 224z" />
    <glyph glyph-name="Ydieresis" unicode="&#x178;" horiz-adv-x="1319" 
d="M226 1650l433 -716l433 716h246l-577 -929v-721h-204v721l-577 929h246zM895 2135q23 0 43 -9t35 -24t24 -35t9 -43t-9 -43t-24 -35t-35 -24t-43 -9t-43 9t-35 24t-24 35t-9 43t9 43t24 35t35 24t43 9zM312 2024q0 23 9 43t24 35t35 24t43 9t43 -9t35 -24t24 -35t9 -43
t-9 -43t-24 -35t-35 -24t-43 -9t-43 9t-35 24t-24 35t-9 43z" />
    <glyph glyph-name="Ygrave" unicode="&#x1ef2;" horiz-adv-x="1319" 
d="M226 1650l433 -716l433 716h246l-577 -929v-721h-204v721l-577 929h246zM748 1836l-410 204l98 145l376 -253z" />
    <glyph glyph-name="Z" unicode="Z" horiz-adv-x="1530" 
d="M74 0l1017 1468h-903v182h1267l-1017 -1468h963v-182h-1327z" />
    <glyph glyph-name="Zacute" unicode="&#x179;" horiz-adv-x="1530" 
d="M74 0l1017 1468h-903v182h1267l-1017 -1468h963v-182h-1327zM975 2185l85 -152l-397 -197l-64 96z" />
    <glyph glyph-name="Zcaron" unicode="&#x17d;" horiz-adv-x="1530" 
d="M74 0l1017 1468h-903v182h1267l-1017 -1468h963v-182h-1327zM771 1831l-385 282l79 107l306 -224l306 224l79 -107z" />
    <glyph glyph-name="Zdotaccent" unicode="&#x17b;" horiz-adv-x="1530" 
d="M74 0l1017 1468h-903v182h1267l-1017 -1468h963v-182h-1327zM649 2102q0 25 9.5 47.5t26 39t39 26t47.5 9.5t47.5 -9.5t39 -26t26 -39t9.5 -47.5t-9.5 -47.5t-26 -39t-39 -26t-47.5 -9.5t-47.5 9.5t-39 26t-26 39t-9.5 47.5z" />
    <glyph glyph-name="M.alt" horiz-adv-x="1836" 
d="M410 1650l508 -1212l508 1212h231v-1650h-204v1203l-467 -1121h-136l-467 1121v-1203h-204v1650h231z" />
    <glyph glyph-name="Q.alt" horiz-adv-x="1806" 
d="M934 1679q116 0 222.5 -30.5t198.5 -86t168 -133t130 -173t83.5 -205t29.5 -228.5q0 -150 -46.5 -285t-129.5 -244t-197 -186.5t-249 -113.5q79 -11 147 -23t138 -12q37 0 67 5t57.5 16t53.5 30t55 46l99 -110q-51 -90 -132.5 -138.5t-207.5 -48.5q-52 0 -94.5 8
t-81 19.5t-75 25t-77 25t-86.5 19.5t-104 8q-241 0 -355 -138l-60 63q53 73 122.5 121.5t162.5 72.5q-96 19 -183 59.5t-161.5 99t-135 133t-103 161.5t-65.5 184.5t-23 202.5q0 119 29.5 228.5t83.5 205t130 173t168 133t199 86t222 30.5zM934 164q130 0 242 50.5t194 139
t129 209t47 260.5t-47 260.5t-129 209t-194 139t-242 50.5t-242 -50.5t-194 -139t-129 -209t-47 -260.5t47 -260.5t129 -209t194 -139t242 -50.5z" />
    <glyph glyph-name="R.alt" horiz-adv-x="1404" 
d="M179 1650h471q122 0 221 -32t169.5 -93.5t109 -150.5t38.5 -204q0 -98 -29.5 -180.5t-84 -145t-133.5 -103t-178 -54.5l373 -473q26 -33 51 -46.5t54 -13.5q41 0 79 26l66 -148q-38 -34 -81 -49t-94 -15q-65 0 -118.5 26.5t-105.5 91.5l-471 587h-133v-673h-204v1650z
M383 840h211q85 0 155.5 21.5t121 63t78.5 102t28 138.5q0 79 -28 138.5t-78.5 100t-121 61t-155.5 20.5h-211v-645z" />
    <glyph glyph-name="a" unicode="a" 
d="M612 1056q128 0 232 -58.5t171 -165.5v192h194v-1024h-194v192q-67 -107 -171 -165.5t-232 -58.5q-110 0 -203.5 41.5t-161.5 114t-106 172t-38 216.5t38 216.5t106 172t161.5 114t203.5 41.5zM305 512q0 -82 27 -151t74.5 -119t113.5 -78t144 -28t144 28t113.5 78
t74 119t26.5 151q0 83 -26.5 152t-74 118.5t-113.5 77.5t-144 28t-144 -28t-113.5 -78t-74.5 -119t-27 -151z" />
    <glyph glyph-name="aacute" unicode="&#xe1;" 
d="M612 1056q128 0 232 -58.5t171 -165.5v192h194v-1024h-194v192q-67 -107 -171 -165.5t-232 -58.5q-110 0 -203.5 41.5t-161.5 114t-106 172t-38 216.5t38 216.5t106 172t161.5 114t203.5 41.5zM305 512q0 -82 27 -151t74.5 -119t113.5 -78t144 -28t144 28t113.5 78
t74 119t26.5 151q0 83 -26.5 152t-74 118.5t-113.5 77.5t-144 28t-144 -28t-113.5 -78t-74.5 -119t-27 -151zM876 1559l85 -152l-397 -197l-64 96z" />
    <glyph glyph-name="abreve" unicode="&#x103;" 
d="M612 1056q128 0 232 -58.5t171 -165.5v192h194v-1024h-194v192q-67 -107 -171 -165.5t-232 -58.5q-110 0 -203.5 41.5t-161.5 114t-106 172t-38 216.5t38 216.5t106 172t161.5 114t203.5 41.5zM305 512q0 -82 27 -151t74.5 -119t113.5 -78t144 -28t144 28t113.5 78
t74 119t26.5 151q0 83 -26.5 152t-74 118.5t-113.5 77.5t-144 28t-144 -28t-113.5 -78t-74.5 -119t-27 -151zM249 1644l143 35q9 -49 31.5 -92t58 -75.5t83.5 -51t107 -18.5t107 18.5t83.5 51t58 75.5t31.5 92l143 -35q-12 -74 -48.5 -135t-92 -104.5t-127 -67.5t-155.5 -24
t-155.5 24t-127 67.5t-92 104.5t-48.5 135z" />
    <glyph glyph-name="acircumflex" unicode="&#xe2;" 
d="M612 1056q128 0 232 -58.5t171 -165.5v192h194v-1024h-194v192q-67 -107 -171 -165.5t-232 -58.5q-110 0 -203.5 41.5t-161.5 114t-106 172t-38 216.5t38 216.5t106 172t161.5 114t203.5 41.5zM305 512q0 -82 27 -151t74.5 -119t113.5 -78t144 -28t144 28t113.5 78
t74 119t26.5 151q0 83 -26.5 152t-74 118.5t-113.5 77.5t-144 28t-144 -28t-113.5 -78t-74.5 -119t-27 -151zM366 1291l-79 107l385 282l385 -282l-79 -107l-306 224z" />
    <glyph glyph-name="adieresis" unicode="&#xe4;" 
d="M612 1056q128 0 232 -58.5t171 -165.5v192h194v-1024h-194v192q-67 -107 -171 -165.5t-232 -58.5q-110 0 -203.5 41.5t-161.5 114t-106 172t-38 216.5t38 216.5t106 172t161.5 114t203.5 41.5zM305 512q0 -82 27 -151t74.5 -119t113.5 -78t144 -28t144 28t113.5 78
t74 119t26.5 151q0 83 -26.5 152t-74 118.5t-113.5 77.5t-144 28t-144 -28t-113.5 -78t-74.5 -119t-27 -151zM908 1509q23 0 43 -9t35 -24t24 -35t9 -43t-9 -43t-24 -35t-35 -24t-43 -9t-43 9t-35 24t-24 35t-9 43t9 43t24 35t35 24t43 9zM325 1398q0 23 9 43t24 35t35 24
t43 9t43 -9t35 -24t24 -35t9 -43t-9 -43t-24 -35t-35 -24t-43 -9t-43 9t-35 24t-24 35t-9 43z" />
    <glyph glyph-name="agrave" unicode="&#xe0;" 
d="M612 1056q128 0 232 -58.5t171 -165.5v192h194v-1024h-194v192q-67 -107 -171 -165.5t-232 -58.5q-110 0 -203.5 41.5t-161.5 114t-106 172t-38 216.5t38 216.5t106 172t161.5 114t203.5 41.5zM305 512q0 -82 27 -151t74.5 -119t113.5 -78t144 -28t144 28t113.5 78
t74 119t26.5 151q0 83 -26.5 152t-74 118.5t-113.5 77.5t-144 28t-144 -28t-113.5 -78t-74.5 -119t-27 -151zM761 1210l-410 204l98 145l376 -253z" />
    <glyph glyph-name="amacron" unicode="&#x101;" 
d="M612 1056q128 0 232 -58.5t171 -165.5v192h194v-1024h-194v192q-67 -107 -171 -165.5t-232 -58.5q-110 0 -203.5 41.5t-161.5 114t-106 172t-38 216.5t38 216.5t106 172t161.5 114t203.5 41.5zM305 512q0 -82 27 -151t74.5 -119t113.5 -78t144 -28t144 28t113.5 78
t74 119t26.5 151q0 83 -26.5 152t-74 118.5t-113.5 77.5t-144 28t-144 -28t-113.5 -78t-74.5 -119t-27 -151zM264 1321v136h816v-136h-816z" />
    <glyph glyph-name="aogonek" unicode="&#x105;" 
d="M612 1056q128 0 232 -58.5t171 -165.5v192h194v-1024h-194v192q-67 -107 -171 -165.5t-232 -58.5q-110 0 -203.5 41.5t-161.5 114t-106 172t-38 216.5t38 216.5t106 172t161.5 114t203.5 41.5zM305 512q0 -82 27 -151t74.5 -119t113.5 -78t144 -28t144 28t113.5 78
t74 119t26.5 151q0 83 -26.5 152t-74 118.5t-113.5 77.5t-144 28t-144 -28t-113.5 -78t-74.5 -119t-27 -151zM928 -334q0 69 46 154.5t133 179.5h102q-37 -42 -66.5 -84t-49.5 -82t-31 -76.5t-11 -66.5q0 -27 9 -51.5t27.5 -42.5t45.5 -28.5t63 -10.5q96 0 173 90l85 -63
q-23 -33 -53.5 -60t-66.5 -45.5t-75 -28.5t-80 -10q-55 0 -101 17.5t-79.5 48.5t-52 71.5t-18.5 87.5z" />
    <glyph glyph-name="aring" unicode="&#xe5;" 
d="M612 1056q128 0 232 -58.5t171 -165.5v192h194v-1024h-194v192q-67 -107 -171 -165.5t-232 -58.5q-110 0 -203.5 41.5t-161.5 114t-106 172t-38 216.5t38 216.5t106 172t161.5 114t203.5 41.5zM305 512q0 -82 27 -151t74.5 -119t113.5 -78t144 -28t144 28t113.5 78
t74 119t26.5 151q0 83 -26.5 152t-74 118.5t-113.5 77.5t-144 28t-144 -28t-113.5 -78t-74.5 -119t-27 -151zM419 1464q0 49 19.5 90t53.5 71t80.5 46.5t99.5 16.5t99.5 -16.5t80.5 -46.5t53.5 -71t19.5 -90t-19.5 -90t-53.5 -71t-80.5 -46.5t-99.5 -16.5t-99.5 16.5
t-80.5 46.5t-53.5 71t-19.5 90zM540 1464q0 -26 10 -48t28 -38.5t42 -26t52 -9.5t52 9.5t42 26t28 38.5t10 48t-10 48t-28 38.5t-42 26t-52 9.5t-52 -9.5t-42 -26t-28 -38.5t-10 -48z" />
    <glyph glyph-name="atilde" unicode="&#xe3;" 
d="M612 1056q128 0 232 -58.5t171 -165.5v192h194v-1024h-194v192q-67 -107 -171 -165.5t-232 -58.5q-110 0 -203.5 41.5t-161.5 114t-106 172t-38 216.5t38 216.5t106 172t161.5 114t203.5 41.5zM305 512q0 -82 27 -151t74.5 -119t113.5 -78t144 -28t144 28t113.5 78
t74 119t26.5 151q0 83 -26.5 152t-74 118.5t-113.5 77.5t-144 28t-144 -28t-113.5 -78t-74.5 -119t-27 -151zM162 1337q53 99 129 155.5t175 56.5q46 0 83 -12t69 -30t61 -38.5t59 -38.5t62.5 -30t71.5 -12q69 0 119 37t83 95l108 -70q-53 -99 -129 -155.5t-175 -56.5
q-46 0 -83 12t-69 30t-61 38.5t-59 38.5t-62.5 30t-71.5 12q-69 0 -119 -37t-83 -95z" />
    <glyph glyph-name="ae" unicode="&#xe6;" horiz-adv-x="1895" 
d="M0 291q0 73 30 133.5t83 103.5t126 67t158 24q97 0 183 -32t142 -87v111q0 67 -21 120.5t-59.5 90.5t-93 57t-121.5 20q-71 0 -140 -22t-126 -66l-96 110q72 64 166 99.5t211 35.5q147 0 247 -58t148 -170q35 51 81 93t100.5 72t116.5 46.5t129 16.5q114 0 211.5 -40.5
t169 -112t112.5 -169t41 -212.5v-13.5t-1 -18.5h-882q0 -80 27.5 -147t77.5 -115t119.5 -75t153.5 -27q209 0 332 171l141 -74q-75 -123 -201 -189t-286 -66q-143 0 -259 59t-192 168q-90 -110 -196.5 -168.5t-237.5 -58.5q-86 0 -158 22.5t-124.5 64.5t-82 101.5
t-29.5 134.5zM191 302q0 -46 21 -84t58 -65.5t86 -42.5t105 -15t105 14.5t86 41.5t58 65t21 84t-21.5 83.5t-58.5 64.5t-86.5 41.5t-105.5 14.5t-105 -14.5t-85 -41t-57 -63.5t-21 -83zM921 604h686q-7 68 -35.5 125.5t-74 99.5t-104.5 65.5t-128 23.5t-129.5 -23.5
t-106 -65.5t-74 -99.5t-34.5 -125.5z" />
    <glyph glyph-name="b" unicode="b" horiz-adv-x="1381" 
d="M367 1720v-888q67 107 171 165.5t232 58.5q110 0 203.5 -41.5t161.5 -114t106 -172t38 -216.5t-38 -216.5t-106 -172t-161.5 -114t-203.5 -41.5q-128 0 -232 58.5t-171 165.5v-192h-194v1720h194zM718 136q78 0 144 28t113.5 78t74.5 119t27 151t-27 151t-74.5 119
t-113.5 78t-144 28t-144 -28t-113.5 -77.5t-74 -118.5t-26.5 -152q0 -82 26.5 -151t74 -119t113.5 -78t144 -28z" />
    <glyph glyph-name="c" unicode="c" horiz-adv-x="1095" 
d="M96 512q0 114 43 213t118 172.5t177.5 116t221.5 42.5q101 0 192 -29.5t154 -79.5l-87 -122q-48 34 -107.5 51.5t-125.5 17.5q-87 0 -158 -30t-121 -82t-77.5 -121.5t-27.5 -148.5t27.5 -148.5t77.5 -121.5t121 -82t158 -30q66 0 125.5 17.5t107.5 51.5l87 -122
q-63 -50 -154 -79.5t-192 -29.5q-119 0 -221.5 42.5t-177.5 116t-118 172.5t-43 213z" />
    <glyph glyph-name="cacute" unicode="&#x107;" horiz-adv-x="1095" 
d="M96 512q0 114 43 213t118 172.5t177.5 116t221.5 42.5q101 0 192 -29.5t154 -79.5l-87 -122q-48 34 -107.5 51.5t-125.5 17.5q-87 0 -158 -30t-121 -82t-77.5 -121.5t-27.5 -148.5t27.5 -148.5t77.5 -121.5t121 -82t158 -30q66 0 125.5 17.5t107.5 51.5l87 -122
q-63 -50 -154 -79.5t-192 -29.5q-119 0 -221.5 42.5t-177.5 116t-118 172.5t-43 213zM793 1559l85 -152l-397 -197l-64 96z" />
    <glyph glyph-name="ccaron" unicode="&#x10d;" horiz-adv-x="1095" 
d="M96 512q0 114 43 213t118 172.5t177.5 116t221.5 42.5q101 0 192 -29.5t154 -79.5l-87 -122q-48 34 -107.5 51.5t-125.5 17.5q-87 0 -158 -30t-121 -82t-77.5 -121.5t-27.5 -148.5t27.5 -148.5t77.5 -121.5t121 -82t158 -30q66 0 125.5 17.5t107.5 51.5l87 -122
q-63 -50 -154 -79.5t-192 -29.5q-119 0 -221.5 42.5t-177.5 116t-118 172.5t-43 213zM589 1205l-385 282l79 107l306 -224l306 224l79 -107z" />
    <glyph glyph-name="ccedilla" unicode="&#xe7;" horiz-adv-x="1095" 
d="M96 512q0 114 43 213t118 172.5t177.5 116t221.5 42.5q101 0 192 -29.5t154 -79.5l-87 -122q-48 34 -107.5 51.5t-125.5 17.5q-87 0 -158 -30t-121 -82t-77.5 -121.5t-27.5 -148.5t27.5 -148.5t77.5 -121.5t121 -82t158 -30q66 0 125.5 17.5t107.5 51.5l87 -122
q-63 -50 -154 -79.5t-192 -29.5q-119 0 -221.5 42.5t-177.5 116t-118 172.5t-43 213zM309 -414l85 59q31 -48 77.5 -74t102.5 -26q63 0 101.5 31.5t38.5 82.5q0 49 -37.5 79t-97.5 30q-32 0 -67.5 -8.5t-57.5 -21.5l-11 8l82 254h96l-53 -161q8 2 14.5 2h14.5q42 0 83.5 -11
t74.5 -33.5t53.5 -57.5t20.5 -83q0 -47 -18.5 -87t-52 -68.5t-80 -44.5t-101.5 -16q-84 0 -152 37.5t-116 108.5z" />
    <glyph glyph-name="cdotaccent" unicode="&#x10b;" horiz-adv-x="1095" 
d="M96 512q0 114 43 213t118 172.5t177.5 116t221.5 42.5q101 0 192 -29.5t154 -79.5l-87 -122q-48 34 -107.5 51.5t-125.5 17.5q-87 0 -158 -30t-121 -82t-77.5 -121.5t-27.5 -148.5t27.5 -148.5t77.5 -121.5t121 -82t158 -30q66 0 125.5 17.5t107.5 51.5l87 -122
q-63 -50 -154 -79.5t-192 -29.5q-119 0 -221.5 42.5t-177.5 116t-118 172.5t-43 213zM467 1476q0 25 9.5 47.5t26 39t39 26t47.5 9.5t47.5 -9.5t39 -26t26 -39t9.5 -47.5t-9.5 -47.5t-26 -39t-39 -26t-47.5 -9.5t-47.5 9.5t-39 26t-26 39t-9.5 47.5z" />
    <glyph glyph-name="d" unicode="d" 
d="M612 1056q128 0 232 -58.5t171 -165.5v888h194v-1720h-194v192q-67 -107 -171 -165.5t-232 -58.5q-110 0 -203.5 41.5t-161.5 114t-106 172t-38 216.5t38 216.5t106 172t161.5 114t203.5 41.5zM305 512q0 -82 27 -151t74.5 -119t113.5 -78t144 -28t144 28t113.5 78
t74 119t26.5 151q0 83 -26.5 152t-74 118.5t-113.5 77.5t-144 28t-144 -28t-113.5 -78t-74.5 -119t-27 -151z" />
    <glyph glyph-name="eth" unicode="&#xf0;" horiz-adv-x="1392" 
d="M118 512q0 130 48.5 232.5t128.5 173t182 107.5t210 37q98 0 177.5 -42t125.5 -117q-44 164 -125 286.5t-191 208.5l-159 -159l-93 93l137 137q-61 38 -124.5 66.5t-123.5 48.5l50 166q81 -26 165.5 -62.5t164.5 -86.5l150 149l91 -94l-128 -127q103 -79 190 -182
t150 -230t98 -278t35 -327q0 -119 -44 -219t-121 -172t-183 -112.5t-230 -40.5q-127 0 -233.5 40.5t-183.5 112.5t-120.5 172t-43.5 219zM321 512q0 -82 28 -151t78 -119t119 -78t152 -28q81 0 150.5 28t119.5 78t78.5 119t28.5 151q0 83 -29 152t-79.5 118.5t-119.5 77.5
t-149 28q-81 0 -150 -28t-119.5 -77.5t-79 -118.5t-28.5 -152z" />
    <glyph glyph-name="dcaron" unicode="&#x10f;" 
d="M612 1056q128 0 232 -58.5t171 -165.5v888h194v-1720h-194v192q-67 -107 -171 -165.5t-232 -58.5q-110 0 -203.5 41.5t-161.5 114t-106 172t-38 216.5t38 216.5t106 172t161.5 114t203.5 41.5zM305 512q0 -82 27 -151t74.5 -119t113.5 -78t144 -28t144 28t113.5 78
t74 119t26.5 151q0 83 -26.5 152t-74 118.5t-113.5 77.5t-144 28t-144 -28t-113.5 -78t-74.5 -119t-27 -151zM620 1555l-385 282l79 107l306 -224l306 224l79 -107z" />
    <glyph glyph-name="dcroat" unicode="&#x111;" horiz-adv-x="1513" 
d="M612 1056q128 0 232 -58.5t171 -165.5v474h-325v130h325v284h194v-284h205v-130h-205v-1306h-194v192q-67 -107 -171 -165.5t-232 -58.5q-110 0 -203.5 41.5t-161.5 114t-106 172t-38 216.5t38 216.5t106 172t161.5 114t203.5 41.5zM305 512q0 -82 27 -151t74.5 -119
t113.5 -78t144 -28t144 28t113.5 78t74 119t26.5 151q0 83 -26.5 152t-74 118.5t-113.5 77.5t-144 28t-144 -28t-113.5 -78t-74.5 -119t-27 -151z" />
    <glyph glyph-name="e" unicode="e" horiz-adv-x="1275" 
d="M96 508q0 117 43 217t118 173.5t175.5 115.5t214.5 42q111 0 207.5 -41.5t168.5 -112.5t113.5 -165.5t41.5 -201.5q0 -14 -0.5 -24t-1.5 -21h-882q0 -80 27.5 -147t77.5 -115t119.5 -75t153.5 -27q105 0 188 43t144 128l142 -74q-37 -60 -88 -107.5t-113 -80.5t-133 -50
t-149 -17q-123 0 -227 41.5t-179.5 114t-118 171.5t-42.5 213zM300 596h687q-7 70 -36.5 128.5t-75 100.5t-105 65.5t-127.5 23.5q-69 0 -129 -24t-106 -66t-74 -100.5t-34 -127.5z" />
    <glyph glyph-name="eacute" unicode="&#xe9;" horiz-adv-x="1275" 
d="M96 508q0 117 43 217t118 173.5t175.5 115.5t214.5 42q111 0 207.5 -41.5t168.5 -112.5t113.5 -165.5t41.5 -201.5q0 -14 -0.5 -24t-1.5 -21h-882q0 -80 27.5 -147t77.5 -115t119.5 -75t153.5 -27q105 0 188 43t144 128l142 -74q-37 -60 -88 -107.5t-113 -80.5t-133 -50
t-149 -17q-123 0 -227 41.5t-179.5 114t-118 171.5t-42.5 213zM300 596h687q-7 70 -36.5 128.5t-75 100.5t-105 65.5t-127.5 23.5q-69 0 -129 -24t-106 -66t-74 -100.5t-34 -127.5zM847 1559l85 -152l-397 -197l-64 96z" />
    <glyph glyph-name="ecaron" unicode="&#x11b;" horiz-adv-x="1275" 
d="M96 508q0 117 43 217t118 173.5t175.5 115.5t214.5 42q111 0 207.5 -41.5t168.5 -112.5t113.5 -165.5t41.5 -201.5q0 -14 -0.5 -24t-1.5 -21h-882q0 -80 27.5 -147t77.5 -115t119.5 -75t153.5 -27q105 0 188 43t144 128l142 -74q-37 -60 -88 -107.5t-113 -80.5t-133 -50
t-149 -17q-123 0 -227 41.5t-179.5 114t-118 171.5t-42.5 213zM300 596h687q-7 70 -36.5 128.5t-75 100.5t-105 65.5t-127.5 23.5q-69 0 -129 -24t-106 -66t-74 -100.5t-34 -127.5zM643 1205l-385 282l79 107l306 -224l306 224l79 -107z" />
    <glyph glyph-name="ecircumflex" unicode="&#xea;" horiz-adv-x="1275" 
d="M96 508q0 117 43 217t118 173.5t175.5 115.5t214.5 42q111 0 207.5 -41.5t168.5 -112.5t113.5 -165.5t41.5 -201.5q0 -14 -0.5 -24t-1.5 -21h-882q0 -80 27.5 -147t77.5 -115t119.5 -75t153.5 -27q105 0 188 43t144 128l142 -74q-37 -60 -88 -107.5t-113 -80.5t-133 -50
t-149 -17q-123 0 -227 41.5t-179.5 114t-118 171.5t-42.5 213zM300 596h687q-7 70 -36.5 128.5t-75 100.5t-105 65.5t-127.5 23.5q-69 0 -129 -24t-106 -66t-74 -100.5t-34 -127.5zM337 1291l-79 107l385 282l385 -282l-79 -107l-306 224z" />
    <glyph glyph-name="edieresis" unicode="&#xeb;" horiz-adv-x="1275" 
d="M96 508q0 117 43 217t118 173.5t175.5 115.5t214.5 42q111 0 207.5 -41.5t168.5 -112.5t113.5 -165.5t41.5 -201.5q0 -14 -0.5 -24t-1.5 -21h-882q0 -80 27.5 -147t77.5 -115t119.5 -75t153.5 -27q105 0 188 43t144 128l142 -74q-37 -60 -88 -107.5t-113 -80.5t-133 -50
t-149 -17q-123 0 -227 41.5t-179.5 114t-118 171.5t-42.5 213zM300 596h687q-7 70 -36.5 128.5t-75 100.5t-105 65.5t-127.5 23.5q-69 0 -129 -24t-106 -66t-74 -100.5t-34 -127.5zM879 1509q23 0 43 -9t35 -24t24 -35t9 -43t-9 -43t-24 -35t-35 -24t-43 -9t-43 9t-35 24
t-24 35t-9 43t9 43t24 35t35 24t43 9zM296 1398q0 23 9 43t24 35t35 24t43 9t43 -9t35 -24t24 -35t9 -43t-9 -43t-24 -35t-35 -24t-43 -9t-43 9t-35 24t-24 35t-9 43z" />
    <glyph glyph-name="edotaccent" unicode="&#x117;" horiz-adv-x="1275" 
d="M96 508q0 117 43 217t118 173.5t175.5 115.5t214.5 42q111 0 207.5 -41.5t168.5 -112.5t113.5 -165.5t41.5 -201.5q0 -14 -0.5 -24t-1.5 -21h-882q0 -80 27.5 -147t77.5 -115t119.5 -75t153.5 -27q105 0 188 43t144 128l142 -74q-37 -60 -88 -107.5t-113 -80.5t-133 -50
t-149 -17q-123 0 -227 41.5t-179.5 114t-118 171.5t-42.5 213zM300 596h687q-7 70 -36.5 128.5t-75 100.5t-105 65.5t-127.5 23.5q-69 0 -129 -24t-106 -66t-74 -100.5t-34 -127.5zM521 1476q0 25 9.5 47.5t26 39t39 26t47.5 9.5t47.5 -9.5t39 -26t26 -39t9.5 -47.5
t-9.5 -47.5t-26 -39t-39 -26t-47.5 -9.5t-47.5 9.5t-39 26t-26 39t-9.5 47.5z" />
    <glyph glyph-name="egrave" unicode="&#xe8;" horiz-adv-x="1275" 
d="M96 508q0 117 43 217t118 173.5t175.5 115.5t214.5 42q111 0 207.5 -41.5t168.5 -112.5t113.5 -165.5t41.5 -201.5q0 -14 -0.5 -24t-1.5 -21h-882q0 -80 27.5 -147t77.5 -115t119.5 -75t153.5 -27q105 0 188 43t144 128l142 -74q-37 -60 -88 -107.5t-113 -80.5t-133 -50
t-149 -17q-123 0 -227 41.5t-179.5 114t-118 171.5t-42.5 213zM300 596h687q-7 70 -36.5 128.5t-75 100.5t-105 65.5t-127.5 23.5q-69 0 -129 -24t-106 -66t-74 -100.5t-34 -127.5zM732 1210l-410 204l98 145l376 -253z" />
    <glyph glyph-name="emacron" unicode="&#x113;" horiz-adv-x="1275" 
d="M96 508q0 117 43 217t118 173.5t175.5 115.5t214.5 42q111 0 207.5 -41.5t168.5 -112.5t113.5 -165.5t41.5 -201.5q0 -14 -0.5 -24t-1.5 -21h-882q0 -80 27.5 -147t77.5 -115t119.5 -75t153.5 -27q105 0 188 43t144 128l142 -74q-37 -60 -88 -107.5t-113 -80.5t-133 -50
t-149 -17q-123 0 -227 41.5t-179.5 114t-118 171.5t-42.5 213zM300 596h687q-7 70 -36.5 128.5t-75 100.5t-105 65.5t-127.5 23.5q-69 0 -129 -24t-106 -66t-74 -100.5t-34 -127.5zM235 1321v136h816v-136h-816z" />
    <glyph glyph-name="eogonek" unicode="&#x119;" horiz-adv-x="1275" 
d="M647 1056q111 0 207.5 -41.5t168.5 -112.5t113.5 -165.5t41.5 -201.5q0 -14 -0.5 -24t-1.5 -21h-882q0 -80 27.5 -147t77.5 -115t119.5 -75t153.5 -27q105 0 188 43t144 128l142 -74q-44 -73 -108 -126q-59 -50 -106.5 -105t-81 -109t-51.5 -103.5t-18 -88.5
q0 -27 9 -51.5t27.5 -42.5t45.5 -28.5t63 -10.5q96 0 173 90l85 -63q-23 -33 -53.5 -60t-66.5 -45.5t-75 -28.5t-80 -10q-55 0 -101 17.5t-79.5 48.5t-52 71.5t-18.5 87.5q0 67 43.5 149.5t125.5 173.5q-78 -21 -164 -21q-123 0 -227 41.5t-179.5 114t-118 171.5t-42.5 213
q0 117 43 217t118 173.5t175.5 115.5t214.5 42zM300 596h687q-7 70 -36.5 128.5t-75 100.5t-105 65.5t-127.5 23.5q-69 0 -129 -24t-106 -66t-74 -100.5t-34 -127.5z" />
    <glyph glyph-name="f" unicode="f" horiz-adv-x="669" 
d="M88 1024h114v333q0 98 22 171.5t62 123t96 74t124 24.5q69 0 133.5 -26t110.5 -80l-98 -121q-24 30 -54 41.5t-59 11.5q-68 0 -105.5 -52.5t-37.5 -158.5v-341h256v-148h-256v-876h-194v876h-114v148z" />
    <glyph glyph-name="g" unicode="g" 
d="M612 1056q128 0 232 -58.5t171 -165.5v192h194v-1052q0 -123 -38 -220t-110.5 -164t-178 -102.5t-241.5 -35.5q-199 0 -334 75.5t-201 222.5l162 76q23 -47 60.5 -85.5t86 -65.5t106 -41.5t120.5 -14.5q81 0 149.5 24.5t118.5 70.5t78 112t28 150v218
q-67 -107 -171 -165.5t-232 -58.5q-110 0 -203.5 41.5t-161.5 114t-106 172t-38 216.5t38 216.5t106 172t161.5 114t203.5 41.5zM664 136q78 0 144 28t113.5 78t74 119t26.5 151q0 83 -26.5 152t-74 118.5t-113.5 77.5t-144 28t-144 -28t-113.5 -78t-74.5 -119t-27 -151
t27 -151t74.5 -119t113.5 -78t144 -28z" />
    <glyph glyph-name="gbreve" unicode="&#x11f;" 
d="M612 1056q128 0 232 -58.5t171 -165.5v192h194v-1052q0 -123 -38 -220t-110.5 -164t-178 -102.5t-241.5 -35.5q-199 0 -334 75.5t-201 222.5l162 76q23 -47 60.5 -85.5t86 -65.5t106 -41.5t120.5 -14.5q81 0 149.5 24.5t118.5 70.5t78 112t28 150v218
q-67 -107 -171 -165.5t-232 -58.5q-110 0 -203.5 41.5t-161.5 114t-106 172t-38 216.5t38 216.5t106 172t161.5 114t203.5 41.5zM664 136q78 0 144 28t113.5 78t74 119t26.5 151q0 83 -26.5 152t-74 118.5t-113.5 77.5t-144 28t-144 -28t-113.5 -78t-74.5 -119t-27 -151
t27 -151t74.5 -119t113.5 -78t144 -28zM241 1644l143 35q9 -49 31.5 -92t58 -75.5t83.5 -51t107 -18.5t107 18.5t83.5 51t58 75.5t31.5 92l143 -35q-12 -74 -48.5 -135t-92 -104.5t-127 -67.5t-155.5 -24t-155.5 24t-127 67.5t-92 104.5t-48.5 135z" />
    <glyph glyph-name="uni0123" unicode="&#x123;" 
d="M612 1056q128 0 232 -58.5t171 -165.5v192h194v-1052q0 -123 -38 -220t-110.5 -164t-178 -102.5t-241.5 -35.5q-199 0 -334 75.5t-201 222.5l162 76q23 -47 60.5 -85.5t86 -65.5t106 -41.5t120.5 -14.5q81 0 149.5 24.5t118.5 70.5t78 112t28 150v218
q-67 -107 -171 -165.5t-232 -58.5q-110 0 -203.5 41.5t-161.5 114t-106 172t-38 216.5t38 216.5t106 172t161.5 114t203.5 41.5zM664 136q78 0 144 28t113.5 78t74 119t26.5 151q0 83 -26.5 152t-74 118.5t-113.5 77.5t-144 28t-144 -28t-113.5 -78t-74.5 -119t-27 -151
t27 -151t74.5 -119t113.5 -78t144 -28zM634 1288q-40 0 -63.5 27.5t-23.5 78.5q0 33 10 68.5t27 69.5t41 65t52 53l30 -26q-23 -29 -40.5 -74t-19.5 -94q32 -5 52.5 -27.5t20.5 -56.5q0 -36 -24 -60t-62 -24z" />
    <glyph glyph-name="gdotaccent" unicode="&#x121;" 
d="M612 1056q128 0 232 -58.5t171 -165.5v192h194v-1052q0 -123 -38 -220t-110.5 -164t-178 -102.5t-241.5 -35.5q-199 0 -334 75.5t-201 222.5l162 76q23 -47 60.5 -85.5t86 -65.5t106 -41.5t120.5 -14.5q81 0 149.5 24.5t118.5 70.5t78 112t28 150v218
q-67 -107 -171 -165.5t-232 -58.5q-110 0 -203.5 41.5t-161.5 114t-106 172t-38 216.5t38 216.5t106 172t161.5 114t203.5 41.5zM664 136q78 0 144 28t113.5 78t74 119t26.5 151q0 83 -26.5 152t-74 118.5t-113.5 77.5t-144 28t-144 -28t-113.5 -78t-74.5 -119t-27 -151
t27 -151t74.5 -119t113.5 -78t144 -28zM542 1476q0 25 9.5 47.5t26 39t39 26t47.5 9.5t47.5 -9.5t39 -26t26 -39t9.5 -47.5t-9.5 -47.5t-26 -39t-39 -26t-47.5 -9.5t-47.5 9.5t-39 26t-26 39t-9.5 47.5z" />
    <glyph glyph-name="h" unicode="h" horiz-adv-x="1255" 
d="M173 1720h194v-828q23 35 57 65t77.5 52t96.5 34.5t113 12.5q89 0 160.5 -28.5t121.5 -82t77.5 -130t27.5 -173.5v-642h-194v603q0 144 -68.5 221t-193.5 77q-65 0 -116 -20.5t-86.5 -55t-54 -80t-18.5 -96.5v-649h-194v1720z" />
    <glyph glyph-name="hbar" unicode="&#x127;" horiz-adv-x="1207" 
d="M125 1419v301h194v-301h267v-127h-267v-400q23 35 57 65t77.5 52t96.5 34.5t113 12.5q89 0 160.5 -28.5t121.5 -82t77.5 -130t27.5 -173.5v-642h-194v603q0 144 -68.5 221t-193.5 77q-65 0 -116 -20.5t-86.5 -55t-54 -80t-18.5 -96.5v-649h-194v1292h-94v127h94z" />
    <glyph glyph-name="i" unicode="i" horiz-adv-x="518" 
d="M356 1024v-1024h-194v1024h194zM137 1355q0 25 9.5 47.5t26 39t39 26t47.5 9.5t47.5 -9.5t39 -26t26 -39t9.5 -47.5t-9.5 -47.5t-26 -39t-39 -26t-47.5 -9.5t-47.5 9.5t-39 26t-26 39t-9.5 47.5z" />
    <glyph glyph-name="dotlessi" unicode="&#x131;" horiz-adv-x="635" 
d="M220 0v1024h194v-1024h-194z" />
    <glyph glyph-name="iacute" unicode="&#xed;" horiz-adv-x="468" 
d="M137 0v1024h194v-1024h-194zM438 1560l85 -152l-397 -197l-64 96z" />
    <glyph glyph-name="icircumflex" unicode="&#xee;" horiz-adv-x="618" 
d="M212 0v1024h194v-1024h-194zM3 1292l-79 107l385 282l385 -282l-79 -107l-306 224z" />
    <glyph glyph-name="idieresis" unicode="&#xef;" horiz-adv-x="618" 
d="M212 0v1024h194v-1024h-194zM545 1510q23 0 43 -9t35 -24t24 -35t9 -43t-9 -43t-24 -35t-35 -24t-43 -9t-43 9t-35 24t-24 35t-9 43t9 43t24 35t35 24t43 9zM-38 1399q0 23 9 43t24 35t35 24t43 9t43 -9t35 -24t24 -35t9 -43t-9 -43t-24 -35t-35 -24t-43 -9t-43 9t-35 24
t-24 35t-9 43z" />
    <glyph glyph-name="idotaccent" horiz-adv-x="468" 
d="M137 0v1024h194v-1024h-194zM112 1477q0 25 9.5 47.5t26 39t39 26t47.5 9.5t47.5 -9.5t39 -26t26 -39t9.5 -47.5t-9.5 -47.5t-26 -39t-39 -26t-47.5 -9.5t-47.5 9.5t-39 26t-26 39t-9.5 47.5z" />
    <glyph glyph-name="igrave" unicode="&#xec;" horiz-adv-x="468" 
d="M137 0v1024h194v-1024h-194zM323 1211l-410 204l98 145l376 -253z" />
    <glyph glyph-name="imacron" unicode="&#x12b;" horiz-adv-x="618" 
d="M212 0v1024h194v-1024h-194zM-99 1322v136h816v-136h-816z" />
    <glyph glyph-name="iogonek" unicode="&#x12f;" horiz-adv-x="518" 
d="M356 1024v-1024h-194v1024h194zM137 1355q0 25 9.5 47.5t26 39t39 26t47.5 9.5t47.5 -9.5t39 -26t26 -39t9.5 -47.5t-9.5 -47.5t-26 -39t-39 -26t-47.5 -9.5t-47.5 9.5t-39 26t-26 39t-9.5 47.5zM75 -334q0 69 46 154.5t133 179.5h102q-37 -42 -66.5 -84t-49.5 -82
t-31 -76.5t-11 -66.5q0 -27 9 -51.5t27.5 -42.5t45.5 -28.5t63 -10.5q96 0 173 90l85 -63q-23 -33 -53.5 -60t-66.5 -45.5t-75 -28.5t-80 -10q-55 0 -101 17.5t-79.5 48.5t-52 71.5t-18.5 87.5z" />
    <glyph glyph-name="j" unicode="j" horiz-adv-x="575" 
d="M-37 -323q24 -30 54 -41.5t59 -11.5q68 0 105.5 50.5t37.5 141.5v1208h194v-1233q0 -82 -20.5 -145.5t-59.5 -107t-94.5 -66t-124.5 -22.5q-73 0 -138 26t-111 80zM194 1355q0 25 9.5 47.5t26 39t39 26t47.5 9.5t47.5 -9.5t39 -26t26 -39t9.5 -47.5t-9.5 -47.5t-26 -39
t-39 -26t-47.5 -9.5t-47.5 9.5t-39 26t-26 39t-9.5 47.5z" />
    <glyph glyph-name="k" unicode="k" horiz-adv-x="1013" 
d="M368 1720v-1101l400 405h253l-477 -488l501 -536h-250l-427 461v-461h-195v1720h195z" />
    <glyph glyph-name="uni0137" unicode="&#x137;" horiz-adv-x="1013" 
d="M368 1720v-1101l400 405h253l-477 -488l501 -536h-250l-427 461v-461h-195v1720h195zM548 -122q40 0 63.5 -27.5t23.5 -78.5q0 -33 -10 -68.5t-27 -69.5t-41 -65t-52 -53l-30 26q23 29 40.5 74t19.5 94q-32 5 -52.5 27.5t-20.5 56.5q0 36 24 60t62 24z" />
    <glyph glyph-name="l" unicode="l" horiz-adv-x="544" 
d="M175 0v1720h194v-1720h-194z" />
    <glyph glyph-name="lacute" unicode="&#x13a;" horiz-adv-x="544" 
d="M175 0v1720h194v-1720h-194zM476 2255l85 -152l-397 -197l-64 96z" />
    <glyph glyph-name="lcaron" unicode="&#x13e;" horiz-adv-x="544" 
d="M175 0v1720h194v-1720h-194zM272 1901l-385 282l79 107l306 -224l306 224l79 -107z" />
    <glyph glyph-name="uni013C" unicode="&#x13c;" horiz-adv-x="544" 
d="M175 0v1720h194v-1720h-194zM272 -122q40 0 63.5 -27.5t23.5 -78.5q0 -33 -10 -68.5t-27 -69.5t-41 -65t-52 -53l-30 26q23 29 40.5 74t19.5 94q-32 5 -52.5 27.5t-20.5 56.5q0 36 24 60t62 24z" />
    <glyph glyph-name="lslash" unicode="&#x142;" horiz-adv-x="892" 
d="M349 934v786h194v-634l174 137v-173l-174 -137v-913h-194v761l-174 -137v173z" />
    <glyph glyph-name="m" unicode="m" horiz-adv-x="1946" 
d="M173 0v1024h195v-153q65 99 147 142t182 43q62 0 117 -14.5t100.5 -42t79 -66t52.5 -86.5q64 98 153 153.5t212 55.5q82 0 151 -25.5t119.5 -74.5t79 -120t28.5 -161v-675h-195v621q0 64 -17.5 115.5t-49.5 87.5t-77 55t-101 19q-58 0 -107.5 -20.5t-86 -59t-57 -93.5
t-20.5 -125v-600h-195v633q0 61 -17 110t-48.5 83.5t-76 53t-99.5 18.5q-57 0 -107 -20.5t-87 -59t-58.5 -93.5t-21.5 -125v-600h-195z" />
    <glyph glyph-name="n" unicode="n" horiz-adv-x="1255" 
d="M173 1024h194v-142q47 78 134.5 126t208.5 48q89 0 160.5 -28.5t122 -82t78 -130t27.5 -173.5v-642h-194v603q0 144 -68.5 220.5t-193.5 76.5q-131 0 -203 -83t-72 -238v-579h-194v1024z" />
    <glyph glyph-name="nacute" unicode="&#x144;" horiz-adv-x="1255" 
d="M173 1024h194v-142q47 78 134.5 126t208.5 48q89 0 160.5 -28.5t122 -82t78 -130t27.5 -173.5v-642h-194v603q0 144 -68.5 220.5t-193.5 76.5q-131 0 -203 -83t-72 -238v-579h-194v1024zM846 1559l85 -152l-397 -197l-64 96z" />
    <glyph glyph-name="ncaron" unicode="&#x148;" horiz-adv-x="1255" 
d="M173 1024h194v-142q47 78 134.5 126t208.5 48q89 0 160.5 -28.5t122 -82t78 -130t27.5 -173.5v-642h-194v603q0 144 -68.5 220.5t-193.5 76.5q-131 0 -203 -83t-72 -238v-579h-194v1024zM642 1205l-385 282l79 107l306 -224l306 224l79 -107z" />
    <glyph glyph-name="uni0146" unicode="&#x146;" horiz-adv-x="1255" 
d="M173 1024h194v-142q47 78 134.5 126t208.5 48q89 0 160.5 -28.5t122 -82t78 -130t27.5 -173.5v-642h-194v603q0 144 -68.5 220.5t-193.5 76.5q-131 0 -203 -83t-72 -238v-579h-194v1024zM642 -122q40 0 63.5 -27.5t23.5 -78.5q0 -33 -10 -68.5t-27 -69.5t-41 -65t-52 -53
l-30 26q23 29 40.5 74t19.5 94q-32 5 -52.5 27.5t-20.5 56.5q0 36 24 60t62 24z" />
    <glyph glyph-name="eng" unicode="&#x14b;" horiz-adv-x="1235" 
d="M173 1024h194v-142q47 78 134.5 126t208.5 48q89 0 160.5 -28.5t122 -82t78 -130t27.5 -173.5v-851q0 -82 -20.5 -145.5t-59 -107t-94 -66t-124.5 -22.5q-73 0 -138.5 26t-110.5 80l98 121q24 -30 54 -41.5t59 -11.5q68 0 105 50.5t37 141.5v787q0 144 -68.5 220.5
t-193.5 76.5q-131 0 -203 -83t-72 -238v-579h-194v1024z" />
    <glyph glyph-name="ntilde" unicode="&#xf1;" horiz-adv-x="1255" 
d="M173 1024h194v-142q47 78 134.5 126t208.5 48q89 0 160.5 -28.5t122 -82t78 -130t27.5 -173.5v-642h-194v603q0 144 -68.5 220.5t-193.5 76.5q-131 0 -203 -83t-72 -238v-579h-194v1024zM132 1337q53 99 129 155.5t175 56.5q46 0 83 -12t69 -30t61 -38.5t59 -38.5
t62.5 -30t71.5 -12q69 0 119 37t83 95l108 -70q-53 -99 -129 -155.5t-175 -56.5q-46 0 -83 12t-69 30t-61 38.5t-59 38.5t-62.5 30t-71.5 12q-69 0 -119 -37t-83 -95z" />
    <glyph glyph-name="o" unicode="o" horiz-adv-x="1348" 
d="M97 512q0 120 44.5 220t122 172t183 112t227.5 40t227.5 -40t183 -112t122 -172t44.5 -220t-44.5 -220t-122 -172t-183 -112t-227.5 -40t-227.5 40t-183 112t-122 172t-44.5 220zM299 512q0 -82 28.5 -150.5t78.5 -118t118.5 -77.5t149.5 -28t149.5 28t118.5 77.5
t78.5 118t28.5 150.5t-28.5 150.5t-78.5 118t-118.5 77.5t-149.5 28t-149.5 -28t-118.5 -77.5t-78.5 -118t-28.5 -150.5z" />
    <glyph glyph-name="oacute" unicode="&#xf3;" horiz-adv-x="1348" 
d="M97 512q0 120 44.5 220t122 172t183 112t227.5 40t227.5 -40t183 -112t122 -172t44.5 -220t-44.5 -220t-122 -172t-183 -112t-227.5 -40t-227.5 40t-183 112t-122 172t-44.5 220zM299 512q0 -82 28.5 -150.5t78.5 -118t118.5 -77.5t149.5 -28t149.5 28t118.5 77.5
t78.5 118t28.5 150.5t-28.5 150.5t-78.5 118t-118.5 77.5t-149.5 28t-149.5 -28t-118.5 -77.5t-78.5 -118t-28.5 -150.5zM878 1559l85 -152l-397 -197l-64 96z" />
    <glyph glyph-name="ocircumflex" unicode="&#xf4;" horiz-adv-x="1348" 
d="M97 512q0 120 44.5 220t122 172t183 112t227.5 40t227.5 -40t183 -112t122 -172t44.5 -220t-44.5 -220t-122 -172t-183 -112t-227.5 -40t-227.5 40t-183 112t-122 172t-44.5 220zM299 512q0 -82 28.5 -150.5t78.5 -118t118.5 -77.5t149.5 -28t149.5 28t118.5 77.5
t78.5 118t28.5 150.5t-28.5 150.5t-78.5 118t-118.5 77.5t-149.5 28t-149.5 -28t-118.5 -77.5t-78.5 -118t-28.5 -150.5zM368 1291l-79 107l385 282l385 -282l-79 -107l-306 224z" />
    <glyph glyph-name="odieresis" unicode="&#xf6;" horiz-adv-x="1348" 
d="M97 512q0 120 44.5 220t122 172t183 112t227.5 40t227.5 -40t183 -112t122 -172t44.5 -220t-44.5 -220t-122 -172t-183 -112t-227.5 -40t-227.5 40t-183 112t-122 172t-44.5 220zM299 512q0 -82 28.5 -150.5t78.5 -118t118.5 -77.5t149.5 -28t149.5 28t118.5 77.5
t78.5 118t28.5 150.5t-28.5 150.5t-78.5 118t-118.5 77.5t-149.5 28t-149.5 -28t-118.5 -77.5t-78.5 -118t-28.5 -150.5zM910 1509q23 0 43 -9t35 -24t24 -35t9 -43t-9 -43t-24 -35t-35 -24t-43 -9t-43 9t-35 24t-24 35t-9 43t9 43t24 35t35 24t43 9zM327 1398q0 23 9 43
t24 35t35 24t43 9t43 -9t35 -24t24 -35t9 -43t-9 -43t-24 -35t-35 -24t-43 -9t-43 9t-35 24t-24 35t-9 43z" />
    <glyph glyph-name="ograve" unicode="&#xf2;" horiz-adv-x="1348" 
d="M97 512q0 120 44.5 220t122 172t183 112t227.5 40t227.5 -40t183 -112t122 -172t44.5 -220t-44.5 -220t-122 -172t-183 -112t-227.5 -40t-227.5 40t-183 112t-122 172t-44.5 220zM299 512q0 -82 28.5 -150.5t78.5 -118t118.5 -77.5t149.5 -28t149.5 28t118.5 77.5
t78.5 118t28.5 150.5t-28.5 150.5t-78.5 118t-118.5 77.5t-149.5 28t-149.5 -28t-118.5 -77.5t-78.5 -118t-28.5 -150.5zM763 1210l-410 204l98 145l376 -253z" />
    <glyph glyph-name="ohungarumlaut" unicode="&#x151;" horiz-adv-x="1348" 
d="M97 512q0 120 44.5 220t122 172t183 112t227.5 40t227.5 -40t183 -112t122 -172t44.5 -220t-44.5 -220t-122 -172t-183 -112t-227.5 -40t-227.5 40t-183 112t-122 172t-44.5 220zM299 512q0 -82 28.5 -150.5t78.5 -118t118.5 -77.5t149.5 -28t149.5 28t118.5 77.5
t78.5 118t28.5 150.5t-28.5 150.5t-78.5 118t-118.5 77.5t-149.5 28t-149.5 -28t-118.5 -77.5t-78.5 -118t-28.5 -150.5zM832 1331l-83 94l256 254l132 -140zM432 1331l-83 94l257 254l131 -140z" />
    <glyph glyph-name="omacron" unicode="&#x14d;" horiz-adv-x="1348" 
d="M97 512q0 120 44.5 220t122 172t183 112t227.5 40t227.5 -40t183 -112t122 -172t44.5 -220t-44.5 -220t-122 -172t-183 -112t-227.5 -40t-227.5 40t-183 112t-122 172t-44.5 220zM299 512q0 -82 28.5 -150.5t78.5 -118t118.5 -77.5t149.5 -28t149.5 28t118.5 77.5
t78.5 118t28.5 150.5t-28.5 150.5t-78.5 118t-118.5 77.5t-149.5 28t-149.5 -28t-118.5 -77.5t-78.5 -118t-28.5 -150.5zM266 1321v136h816v-136h-816z" />
    <glyph glyph-name="oslash" unicode="&#xf8;" horiz-adv-x="1348" 
d="M381 37l-56 -69h-110l94 114q-99 72 -155.5 182t-56.5 248q0 120 44.5 220t122 172t183 112t227.5 40q100 0 188.5 -26.5t160.5 -75.5l84 102h110l-128 -156q76 -72 119 -170.5t43 -217.5q0 -120 -44.5 -220t-122 -172t-183 -112t-227.5 -40q-81 0 -155 17.5t-138 51.5z
M907 812q-48 35 -106.5 54.5t-126.5 19.5q-81 0 -149.5 -28t-118.5 -77.5t-78.5 -118t-28.5 -150.5q0 -90 33.5 -163t93.5 -124zM674 138q81 0 149.5 28t118.5 77.5t78.5 118t28.5 150.5q0 71 -21.5 131.5t-59.5 108.5l-471 -574q80 -40 177 -40z" />
    <glyph glyph-name="otilde" unicode="&#xf5;" horiz-adv-x="1348" 
d="M97 512q0 120 44.5 220t122 172t183 112t227.5 40t227.5 -40t183 -112t122 -172t44.5 -220t-44.5 -220t-122 -172t-183 -112t-227.5 -40t-227.5 40t-183 112t-122 172t-44.5 220zM299 512q0 -82 28.5 -150.5t78.5 -118t118.5 -77.5t149.5 -28t149.5 28t118.5 77.5
t78.5 118t28.5 150.5t-28.5 150.5t-78.5 118t-118.5 77.5t-149.5 28t-149.5 -28t-118.5 -77.5t-78.5 -118t-28.5 -150.5zM164 1337q53 99 129 155.5t175 56.5q46 0 83 -12t69 -30t61 -38.5t59 -38.5t62.5 -30t71.5 -12q69 0 119 37t83 95l108 -70q-53 -99 -129 -155.5
t-175 -56.5q-46 0 -83 12t-69 30t-61 38.5t-59 38.5t-62.5 30t-71.5 12q-69 0 -119 -37t-83 -95z" />
    <glyph glyph-name="oe" unicode="&#x153;" horiz-adv-x="2219" 
d="M97 512q0 120 43 220t119.5 172t180.5 112t227 40q80 0 151.5 -19t131.5 -54t107 -86t77 -115q33 62 80.5 112.5t106 86.5t126.5 55.5t142 19.5q113 0 210.5 -40.5t169 -112t112.5 -168.5t41 -211v-12t-1 -22h-882q0 -80 27.5 -147t77.5 -115t119.5 -75t153.5 -27
q208 0 331 171l142 -74q-75 -122 -201.5 -188.5t-286.5 -66.5q-158 0 -279.5 71.5t-189.5 200.5q-30 -63 -76.5 -113.5t-106.5 -86t-131.5 -54t-151.5 -18.5q-123 0 -227 40t-180.5 112t-119.5 172t-43 220zM675 136q81 0 150.5 28t119.5 78t78.5 119t28.5 151t-28.5 151
t-78.5 119t-119.5 78t-150.5 28q-82 0 -151 -28t-119.5 -78t-79 -119t-28.5 -151t28.5 -151t79 -119t119.5 -78t151 -28zM1931 604q-7 68 -36 125.5t-74 99.5t-104.5 65.5t-127.5 23.5q-69 0 -129.5 -23.5t-106 -65.5t-74 -99.5t-34.5 -125.5h686z" />
    <glyph glyph-name="p" unicode="p" horiz-adv-x="1381" 
d="M173 -520v1544h194v-192q67 107 171 165.5t232 58.5q110 0 203.5 -41.5t161.5 -114t106 -172t38 -216.5t-38 -216.5t-106 -172t-161.5 -114t-203.5 -41.5q-128 0 -232 58.5t-171 165.5v-712h-194zM360 512q0 -82 26.5 -151t74 -119t113.5 -78t144 -28t144 28t113.5 78
t74.5 119t27 151t-27 151t-74.5 119t-113.5 78t-144 28t-144 -28t-113.5 -77.5t-74 -118.5t-26.5 -152z" />
    <glyph glyph-name="thorn" unicode="&#xfe;" horiz-adv-x="1381" 
d="M367 1720v-888q67 107 171 165.5t232 58.5q110 0 203.5 -41.5t161.5 -114t106 -172t38 -216.5t-38 -216.5t-106 -172t-161.5 -114t-203.5 -41.5q-128 0 -232 58.5t-171 165.5v-712h-194v2240h194zM718 136q78 0 144 28t113.5 78t74.5 119t27 151t-27 151t-74.5 119
t-113.5 78t-144 28t-144 -28t-113.5 -77.5t-74 -118.5t-26.5 -152q0 -82 26.5 -151t74 -119t113.5 -78t144 -28z" />
    <glyph glyph-name="q" unicode="q" 
d="M612 1056q128 0 232 -58.5t171 -165.5v192h194v-1544h-194v712q-67 -107 -171 -165.5t-232 -58.5q-110 0 -203.5 41.5t-161.5 114t-106 172t-38 216.5t38 216.5t106 172t161.5 114t203.5 41.5zM305 512q0 -82 27 -151t74.5 -119t113.5 -78t144 -28t144 28t113.5 78
t74 119t26.5 151q0 83 -26.5 152t-74 118.5t-113.5 77.5t-144 28t-144 -28t-113.5 -78t-74.5 -119t-27 -151z" />
    <glyph glyph-name="r" unicode="r" horiz-adv-x="862" 
d="M173 1024h194v-180q21 56 53.5 96t72 66t86 38t96.5 12q52 0 100 -11.5t84 -30.5l-80 -165q-32 17 -72.5 27.5t-77.5 10.5q-51 0 -98.5 -22t-84 -65t-58 -107t-21.5 -148v-545h-194v1024z" />
    <glyph glyph-name="racute" unicode="&#x155;" horiz-adv-x="862" 
d="M173 1024h194v-180q21 56 53.5 96t72 66t86 38t96.5 12q52 0 100 -11.5t84 -30.5l-80 -165q-32 17 -72.5 27.5t-77.5 10.5q-51 0 -98.5 -22t-84 -65t-58 -107t-21.5 -148v-545h-194v1024zM688 1559l85 -152l-397 -197l-64 96z" />
    <glyph glyph-name="rcaron" unicode="&#x159;" horiz-adv-x="862" 
d="M173 1024h194v-180q21 56 53.5 96t72 66t86 38t96.5 12q52 0 100 -11.5t84 -30.5l-80 -165q-32 17 -72.5 27.5t-77.5 10.5q-51 0 -98.5 -22t-84 -65t-58 -107t-21.5 -148v-545h-194v1024zM484 1205l-385 282l79 107l306 -224l306 224l79 -107z" />
    <glyph glyph-name="uni0157" unicode="&#x157;" horiz-adv-x="862" 
d="M173 1024h194v-180q21 56 53.5 96t72 66t86 38t96.5 12q52 0 100 -11.5t84 -30.5l-80 -165q-32 17 -72.5 27.5t-77.5 10.5q-51 0 -98.5 -22t-84 -65t-58 -107t-21.5 -148v-545h-194v1024zM270 -122q40 0 63.5 -27.5t23.5 -78.5q0 -33 -10 -68.5t-27 -69.5t-41 -65
t-52 -53l-30 26q23 29 40.5 74t19.5 94q-32 5 -52.5 27.5t-20.5 56.5q0 36 24 60t62 24z" />
    <glyph glyph-name="s" unicode="s" horiz-adv-x="977" 
d="M103 157l110 81q55 -65 123.5 -93.5t139.5 -28.5q42 0 79 10t65 30.5t44.5 51t16.5 71.5q0 39 -18.5 68t-51.5 52t-78 42.5t-98 39.5q-50 19 -102.5 42t-96 57t-71 80.5t-27.5 111.5q0 60 25.5 112t72 90t111.5 59.5t144 21.5q97 0 177.5 -35.5t139.5 -102.5l-95 -84
q-45 45 -99 65t-111 20q-85 0 -133 -38.5t-48 -98.5q0 -33 15 -57.5t43 -44t68.5 -36.5t91.5 -36q74 -27 136 -58t107.5 -70.5t71 -89.5t25.5 -116q0 -73 -27.5 -130t-78 -96t-121.5 -59t-159 -20q-119 0 -219.5 44t-171.5 145z" />
    <glyph glyph-name="sacute" unicode="&#x15b;" horiz-adv-x="977" 
d="M103 157l110 81q55 -65 123.5 -93.5t139.5 -28.5q42 0 79 10t65 30.5t44.5 51t16.5 71.5q0 39 -18.5 68t-51.5 52t-78 42.5t-98 39.5q-50 19 -102.5 42t-96 57t-71 80.5t-27.5 111.5q0 60 25.5 112t72 90t111.5 59.5t144 21.5q97 0 177.5 -35.5t139.5 -102.5l-95 -84
q-45 45 -99 65t-111 20q-85 0 -133 -38.5t-48 -98.5q0 -33 15 -57.5t43 -44t68.5 -36.5t91.5 -36q74 -27 136 -58t107.5 -70.5t71 -89.5t25.5 -116q0 -73 -27.5 -130t-78 -96t-121.5 -59t-159 -20q-119 0 -219.5 44t-171.5 145zM695 1559l85 -152l-397 -197l-64 96z" />
    <glyph glyph-name="scaron" unicode="&#x161;" horiz-adv-x="977" 
d="M103 157l110 81q55 -65 123.5 -93.5t139.5 -28.5q42 0 79 10t65 30.5t44.5 51t16.5 71.5q0 39 -18.5 68t-51.5 52t-78 42.5t-98 39.5q-50 19 -102.5 42t-96 57t-71 80.5t-27.5 111.5q0 60 25.5 112t72 90t111.5 59.5t144 21.5q97 0 177.5 -35.5t139.5 -102.5l-95 -84
q-45 45 -99 65t-111 20q-85 0 -133 -38.5t-48 -98.5q0 -33 15 -57.5t43 -44t68.5 -36.5t91.5 -36q74 -27 136 -58t107.5 -70.5t71 -89.5t25.5 -116q0 -73 -27.5 -130t-78 -96t-121.5 -59t-159 -20q-119 0 -219.5 44t-171.5 145zM491 1205l-385 282l79 107l306 -224l306 224
l79 -107z" />
    <glyph glyph-name="scedilla" unicode="&#x15f;" horiz-adv-x="977" 
d="M103 157l110 81q55 -65 123.5 -93.5t139.5 -28.5q42 0 79 10t65 30.5t44.5 51t16.5 71.5q0 39 -18.5 68t-51.5 52t-78 42.5t-98 39.5q-50 19 -102.5 42t-96 57t-71 80.5t-27.5 111.5q0 60 25.5 112t72 90t111.5 59.5t144 21.5q97 0 177.5 -35.5t139.5 -102.5l-95 -84
q-45 45 -99 65t-111 20q-85 0 -133 -38.5t-48 -98.5q0 -33 15 -57.5t43 -44t68.5 -36.5t91.5 -36q74 -27 136 -58t107.5 -70.5t71 -89.5t25.5 -116q0 -73 -27.5 -130t-78 -96t-121.5 -59t-159 -20q-119 0 -219.5 44t-171.5 145zM229 -393l85 59q31 -48 77.5 -74t102.5 -26
q63 0 101.5 31.5t38.5 82.5q0 49 -37.5 79t-97.5 30q-32 0 -67.5 -8.5t-57.5 -21.5l-11 8l82 254h96l-53 -161q8 2 14.5 2h14.5q42 0 83.5 -11t74.5 -33.5t53.5 -57.5t20.5 -83q0 -47 -18.5 -87t-52 -68.5t-80 -44.5t-101.5 -16q-84 0 -152 37.5t-116 108.5z" />
    <glyph glyph-name="uni0219" unicode="&#x219;" horiz-adv-x="977" 
d="M103 157l110 81q55 -65 123.5 -93.5t139.5 -28.5q42 0 79 10t65 30.5t44.5 51t16.5 71.5q0 39 -18.5 68t-51.5 52t-78 42.5t-98 39.5q-50 19 -102.5 42t-96 57t-71 80.5t-27.5 111.5q0 60 25.5 112t72 90t111.5 59.5t144 21.5q97 0 177.5 -35.5t139.5 -102.5l-95 -84
q-45 45 -99 65t-111 20q-85 0 -133 -38.5t-48 -98.5q0 -33 15 -57.5t43 -44t68.5 -36.5t91.5 -36q74 -27 136 -58t107.5 -70.5t71 -89.5t25.5 -116q0 -73 -27.5 -130t-78 -96t-121.5 -59t-159 -20q-119 0 -219.5 44t-171.5 145zM498 -122q40 0 63.5 -27.5t23.5 -78.5
q0 -33 -10 -68.5t-27 -69.5t-41 -65t-52 -53l-30 26q23 29 40.5 74t19.5 94q-32 5 -52.5 27.5t-20.5 56.5q0 36 24 60t62 24z" />
    <glyph glyph-name="germandbls" unicode="&#xdf;" horiz-adv-x="1300" 
d="M81 863h132v422q0 98 36 183t99.5 147.5t149 98.5t184.5 36q98 0 183 -35t148 -96.5t99 -145t36 -179.5q0 -62 -16 -118.5t-47 -104.5t-75.5 -86.5t-100.5 -64.5q70 -28 125.5 -72t94.5 -100.5t59.5 -124t20.5 -142.5q0 -108 -40.5 -201.5t-111.5 -162.5t-167.5 -108.5
t-209.5 -40.5h-135v180h135q68 0 127.5 26.5t103.5 73t69 109.5t25 136t-25 136t-69 109.5t-103.5 73t-127.5 26.5h-135v155h135q59 0 111 23t90 63t60 94.5t22 116.5t-22 115t-60 92.5t-90 62t-111 22.5q-58 0 -107.5 -22t-86.5 -61t-58 -92.5t-21 -115.5v-1291h-194v707
h-132v156z" />
    <glyph glyph-name="t" unicode="t" horiz-adv-x="713" 
d="M88 876v148h114v383h195v-383h246v-148h-246v-578q0 -77 29.5 -117t86.5 -40q23 0 45 6.5t41 17.5l83 -132q-38 -30 -96.5 -47.5t-117.5 -17.5q-127 0 -196.5 83t-69.5 235v590h-114z" />
    <glyph glyph-name="tbar" unicode="&#x167;" horiz-adv-x="713" 
d="M88 715v109h114v130h-114v109h114v344h195v-344h246v-109h-246v-130h246v-109h-246v-417q0 -77 29.5 -117t86.5 -40q23 0 45 6.5t41 17.5l83 -132q-38 -30 -96.5 -47.5t-117.5 -17.5q-127 0 -196.5 83t-69.5 235v429h-114z" />
    <glyph glyph-name="tcaron" unicode="&#x165;" horiz-adv-x="713" 
d="M88 876v148h114v383h195v-383h246v-148h-246v-578q0 -77 29.5 -117t86.5 -40q23 0 45 6.5t41 17.5l83 -132q-38 -30 -96.5 -47.5t-117.5 -17.5q-127 0 -196.5 83t-69.5 235v590h-114zM389 1588l-385 282l79 107l306 -224l306 224l79 -107z" />
    <glyph glyph-name="uni0163" unicode="&#x163;" horiz-adv-x="713" 
d="M88 876v148h114v383h195v-383h246v-148h-246v-578q0 -77 29.5 -117t86.5 -40q23 0 45 6.5t41 17.5l83 -132q-38 -30 -96.5 -47.5t-117.5 -17.5q-127 0 -196.5 83t-69.5 235v590h-114zM149 -414l85 59q31 -48 77.5 -74t102.5 -26q63 0 101.5 31.5t38.5 82.5q0 49 -37.5 79
t-97.5 30q-32 0 -67.5 -8.5t-57.5 -21.5l-11 8l82 254h96l-53 -161q8 2 14.5 2h14.5q42 0 83.5 -11t74.5 -33.5t53.5 -57.5t20.5 -83q0 -47 -18.5 -87t-52 -68.5t-80 -44.5t-101.5 -16q-84 0 -152 37.5t-116 108.5z" />
    <glyph glyph-name="uni021B" unicode="&#x21b;" horiz-adv-x="713" 
d="M88 876v148h114v383h195v-383h246v-148h-246v-578q0 -77 29.5 -117t86.5 -40q23 0 45 6.5t41 17.5l83 -132q-38 -30 -96.5 -47.5t-117.5 -17.5q-127 0 -196.5 83t-69.5 235v590h-114zM471 -122q40 0 63.5 -27.5t23.5 -78.5q0 -33 -10 -68.5t-27 -69.5t-41 -65t-52 -53
l-30 26q23 29 40.5 74t19.5 94q-32 5 -52.5 27.5t-20.5 56.5q0 36 24 60t62 24z" />
    <glyph glyph-name="u" unicode="u" horiz-adv-x="1236" 
d="M157 1024h194v-504q0 -103 15.5 -177.5t47.5 -121.5t83 -69.5t121 -22.5q71 0 121.5 22.5t82.5 69.5t47.5 121.5t15.5 177.5v504h194v-545q0 -511 -461 -511t-461 511v545z" />
    <glyph glyph-name="uacute" unicode="&#xfa;" horiz-adv-x="1236" 
d="M157 1024h194v-504q0 -103 15.5 -177.5t47.5 -121.5t83 -69.5t121 -22.5q71 0 121.5 22.5t82.5 69.5t47.5 121.5t15.5 177.5v504h194v-545q0 -511 -461 -511t-461 511v545zM822 1559l85 -152l-397 -197l-64 96z" />
    <glyph glyph-name="ucircumflex" unicode="&#xfb;" horiz-adv-x="1236" 
d="M157 1024h194v-504q0 -103 15.5 -177.5t47.5 -121.5t83 -69.5t121 -22.5q71 0 121.5 22.5t82.5 69.5t47.5 121.5t15.5 177.5v504h194v-545q0 -511 -461 -511t-461 511v545zM312 1291l-79 107l385 282l385 -282l-79 -107l-306 224z" />
    <glyph glyph-name="udieresis" unicode="&#xfc;" horiz-adv-x="1236" 
d="M157 1024h194v-504q0 -103 15.5 -177.5t47.5 -121.5t83 -69.5t121 -22.5q71 0 121.5 22.5t82.5 69.5t47.5 121.5t15.5 177.5v504h194v-545q0 -511 -461 -511t-461 511v545zM854 1509q23 0 43 -9t35 -24t24 -35t9 -43t-9 -43t-24 -35t-35 -24t-43 -9t-43 9t-35 24t-24 35
t-9 43t9 43t24 35t35 24t43 9zM271 1398q0 23 9 43t24 35t35 24t43 9t43 -9t35 -24t24 -35t9 -43t-9 -43t-24 -35t-35 -24t-43 -9t-43 9t-35 24t-24 35t-9 43z" />
    <glyph glyph-name="ugrave" unicode="&#xf9;" horiz-adv-x="1236" 
d="M157 1024h194v-504q0 -103 15.5 -177.5t47.5 -121.5t83 -69.5t121 -22.5q71 0 121.5 22.5t82.5 69.5t47.5 121.5t15.5 177.5v504h194v-545q0 -511 -461 -511t-461 511v545zM707 1210l-410 204l98 145l376 -253z" />
    <glyph glyph-name="uhungarumlaut" unicode="&#x171;" horiz-adv-x="1236" 
d="M157 1024h194v-504q0 -103 15.5 -177.5t47.5 -121.5t83 -69.5t121 -22.5q71 0 121.5 22.5t82.5 69.5t47.5 121.5t15.5 177.5v504h194v-545q0 -511 -461 -511t-461 511v545zM776 1331l-83 94l256 254l132 -140zM376 1331l-83 94l257 254l131 -140z" />
    <glyph glyph-name="umacron" unicode="&#x16b;" horiz-adv-x="1236" 
d="M157 1024h194v-504q0 -103 15.5 -177.5t47.5 -121.5t83 -69.5t121 -22.5q71 0 121.5 22.5t82.5 69.5t47.5 121.5t15.5 177.5v504h194v-545q0 -511 -461 -511t-461 511v545zM210 1321v136h816v-136h-816z" />
    <glyph glyph-name="uogonek" unicode="&#x173;" horiz-adv-x="1236" 
d="M351 1024v-504q0 -103 15.5 -177.5t47.5 -121.5t83 -69.5t121 -22.5q71 0 121.5 22.5t82.5 69.5t47.5 121.5t15.5 177.5v504h194v-545q0 -280 -141 -408q-52 -48 -94.5 -97.5t-72 -98.5t-45.5 -94.5t-16 -84.5q0 -29 9 -54.5t27.5 -44t45.5 -29t63 -10.5q96 0 173 90
l85 -63q-23 -33 -53.5 -60t-66.5 -45.5t-75 -28.5t-80 -10q-55 0 -101 18t-79.5 48.5t-52 72.5t-18.5 90q0 72 41.5 147t119.5 163q-60 -12 -130 -12q-461 0 -461 511v545h194z" />
    <glyph glyph-name="uring" unicode="&#x16f;" horiz-adv-x="1236" 
d="M157 1024h194v-504q0 -103 15.5 -177.5t47.5 -121.5t83 -69.5t121 -22.5q71 0 121.5 22.5t82.5 69.5t47.5 121.5t15.5 177.5v504h194v-545q0 -511 -461 -511t-461 511v545zM365 1464q0 49 19.5 90t53.5 71t80.5 46.5t99.5 16.5t99.5 -16.5t80.5 -46.5t53.5 -71t19.5 -90
t-19.5 -90t-53.5 -71t-80.5 -46.5t-99.5 -16.5t-99.5 16.5t-80.5 46.5t-53.5 71t-19.5 90zM486 1464q0 -26 10 -48t28 -38.5t42 -26t52 -9.5t52 9.5t42 26t28 38.5t10 48t-10 48t-28 38.5t-42 26t-52 9.5t-52 -9.5t-42 -26t-28 -38.5t-10 -48z" />
    <glyph glyph-name="v" unicode="v" horiz-adv-x="1120" 
d="M-14 1024h229l345 -756l345 756h229l-509 -1024h-130z" />
    <glyph glyph-name="w" unicode="w" horiz-adv-x="1850" 
d="M-14 1024h223l346 -754l305 754h130l305 -754l346 754h223l-509 -1024h-130l-300 735l-300 -735h-130z" />
    <glyph glyph-name="wacute" unicode="&#x1e83;" horiz-adv-x="1850" 
d="M-14 1024h223l346 -754l305 754h130l305 -754l346 754h223l-509 -1024h-130l-300 735l-300 -735h-130zM1129 1559l85 -152l-397 -197l-64 96z" />
    <glyph glyph-name="wcircumflex" unicode="&#x175;" horiz-adv-x="1850" 
d="M-14 1024h223l346 -754l305 754h130l305 -754l346 754h223l-509 -1024h-130l-300 735l-300 -735h-130zM619 1291l-79 107l385 282l385 -282l-79 -107l-306 224z" />
    <glyph glyph-name="wdieresis" unicode="&#x1e85;" horiz-adv-x="1850" 
d="M-14 1024h223l346 -754l305 754h130l305 -754l346 754h223l-509 -1024h-130l-300 735l-300 -735h-130zM1161 1509q23 0 43 -9t35 -24t24 -35t9 -43t-9 -43t-24 -35t-35 -24t-43 -9t-43 9t-35 24t-24 35t-9 43t9 43t24 35t35 24t43 9zM578 1398q0 23 9 43t24 35t35 24
t43 9t43 -9t35 -24t24 -35t9 -43t-9 -43t-24 -35t-35 -24t-43 -9t-43 9t-35 24t-24 35t-9 43z" />
    <glyph glyph-name="wgrave" unicode="&#x1e81;" horiz-adv-x="1850" 
d="M-14 1024h223l346 -754l305 754h130l305 -754l346 754h223l-509 -1024h-130l-300 735l-300 -735h-130zM1014 1210l-410 204l98 145l376 -253z" />
    <glyph glyph-name="x" unicode="x" horiz-adv-x="1084" 
d="M-14 0l434 533l-374 491h224l272 -359l272 359h224l-374 -491l434 -533h-232l-324 402l-324 -402h-232z" />
    <glyph glyph-name="y" unicode="y" horiz-adv-x="1131" 
d="M209 1024l376 -774l337 774h223l-727 -1544h-221l276 577l-487 967h223z" />
    <glyph glyph-name="yacute" unicode="&#xfd;" horiz-adv-x="1131" 
d="M209 1024l376 -774l337 774h223l-727 -1544h-221l276 577l-487 967h223zM772 1559l85 -152l-397 -197l-64 96z" />
    <glyph glyph-name="ycircumflex" unicode="&#x177;" horiz-adv-x="1131" 
d="M209 1024l376 -774l337 774h223l-727 -1544h-221l276 577l-487 967h223zM262 1291l-79 107l385 282l385 -282l-79 -107l-306 224z" />
    <glyph glyph-name="ydieresis" unicode="&#xff;" horiz-adv-x="1131" 
d="M209 1024l376 -774l337 774h223l-727 -1544h-221l276 577l-487 967h223zM804 1509q23 0 43 -9t35 -24t24 -35t9 -43t-9 -43t-24 -35t-35 -24t-43 -9t-43 9t-35 24t-24 35t-9 43t9 43t24 35t35 24t43 9zM221 1398q0 23 9 43t24 35t35 24t43 9t43 -9t35 -24t24 -35t9 -43
t-9 -43t-24 -35t-35 -24t-43 -9t-43 9t-35 24t-24 35t-9 43z" />
    <glyph glyph-name="ygrave" unicode="&#x1ef3;" horiz-adv-x="1131" 
d="M209 1024l376 -774l337 774h223l-727 -1544h-221l276 577l-487 967h223zM657 1210l-410 204l98 145l376 -253z" />
    <glyph glyph-name="z" unicode="z" horiz-adv-x="1139" 
d="M48 0l699 869h-621v155h964l-701 -869h674v-155h-1015z" />
    <glyph glyph-name="zacute" unicode="&#x17a;" horiz-adv-x="1139" 
d="M48 0l699 869h-621v155h964l-701 -869h674v-155h-1015zM780 1558l85 -152l-397 -197l-64 96z" />
    <glyph glyph-name="zcaron" unicode="&#x17e;" horiz-adv-x="1139" 
d="M48 0l699 869h-621v155h964l-701 -869h674v-155h-1015zM576 1204l-385 282l79 107l306 -224l306 224l79 -107z" />
    <glyph glyph-name="zdotaccent" unicode="&#x17c;" horiz-adv-x="1139" 
d="M48 0l699 869h-621v155h964l-701 -869h674v-155h-1015zM454 1475q0 25 9.5 47.5t26 39t39 26t47.5 9.5t47.5 -9.5t39 -26t26 -39t9.5 -47.5t-9.5 -47.5t-26 -39t-39 -26t-47.5 -9.5t-47.5 9.5t-39 26t-26 39t-9.5 47.5z" />
    <glyph glyph-name="a.alt" horiz-adv-x="1242" 
d="M129 291q0 71 29 131.5t80.5 104t124 68t159.5 24.5q97 0 184.5 -31.5t144.5 -87.5v111q0 66 -21 119t-59.5 90.5t-93 58t-122.5 20.5q-70 0 -139 -22t-126 -66l-96 110q72 64 166 99.5t211 35.5q108 0 195.5 -31t149.5 -88.5t95.5 -138.5t33.5 -182v-616h-194v86
q-61 -57 -144.5 -87.5t-180.5 -30.5q-88 0 -161 24t-125.5 66.5t-81.5 102t-29 130.5zM320 302q0 -45 20.5 -82.5t56.5 -65.5t85.5 -43.5t107.5 -15.5t107.5 15.5t85.5 43t56.5 65t20.5 81.5t-20.5 81.5t-56.5 64.5t-86 42.5t-109 15.5q-58 0 -107.5 -15t-85 -42t-55.5 -64
t-20 -81z" />
    <glyph glyph-name="j.alt" horiz-adv-x="518" 
d="M356 1024v-1544h-194v1544h194zM137 1355q0 25 9.5 47.5t26 39t39 26t47.5 9.5t47.5 -9.5t39 -26t26 -39t9.5 -47.5t-9.5 -47.5t-26 -39t-39 -26t-47.5 -9.5t-47.5 9.5t-39 26t-26 39t-9.5 47.5z" />
    <glyph glyph-name="t.alt" horiz-adv-x="758" 
d="M250 1024v383h194v-383h225v-148h-225v-876h-194v876h-136v148h136z" />
    <glyph glyph-name="u.alt" horiz-adv-x="1349" 
d="M396 1024v-603q0 -138 65.5 -218t199.5 -80q63 0 113 22.5t85.5 58.5t54.5 81.5t19 92.5v646h195v-1024h-195v132q-22 -40 -58 -71t-79 -51.5t-89 -31t-88 -10.5q-91 0 -167.5 25.5t-132 76t-87 125t-31.5 172.5v657h195z" />
    <glyph glyph-name="ordfeminine" unicode="&#xaa;" horiz-adv-x="982" 
d="M143 1344q0 72 23.5 133.5t66 106.5t101 70.5t127.5 25.5q78 0 142.5 -36t102.5 -99v115h121v-632h-121v119q-37 -63 -102 -101t-147 -38q-66 0 -123.5 25t-100 70t-66.5 106.5t-24 134.5zM489 1110q48 0 88.5 17.5t69.5 49t45.5 74.5t16.5 93q0 51 -16.5 94t-46 74
t-70 48.5t-87.5 17.5t-87.5 -17.5t-70 -48.5t-46.5 -74t-17 -94q0 -50 16.5 -93t45.5 -74.5t70 -49t89 -17.5z" />
    <glyph glyph-name="ordmasculine" unicode="&#xba;" horiz-adv-x="958" 
d="M125 1343q0 75 27 137t74.5 106.5t112.5 69t140 24.5t139.5 -24.5t112 -69t74.5 -106.5t27 -137q0 -74 -27 -136t-74.5 -106.5t-112 -69.5t-139.5 -25t-140 25t-112.5 69.5t-74.5 106.5t-27 136zM250 1343q0 -51 17 -94t47.5 -74t72.5 -48.5t91 -17.5q50 0 91.5 17.5
t72.5 48.5t48 74t17 94t-17 94t-47.5 74t-72.5 48.5t-91 17.5q-50 0 -92 -17.5t-72.5 -48.5t-47.5 -74t-17 -94z" />
    <glyph glyph-name="uni0394" unicode="&#x394;" horiz-adv-x="1313" 
d="M626 1650h61l646 -1650h-1353zM1126 133l-469 1282l-470 -1282h939z" />
    <glyph glyph-name="uni03A9" unicode="&#x3a9;" horiz-adv-x="1771" 
d="M885 1680q111 0 212.5 -27.5t188.5 -78.5t158 -122.5t121 -159.5t77 -190.5t27 -213.5q0 -139 -42.5 -261.5t-117 -221t-174 -170.5t-213.5 -110l461 14v-139h-653v102l25 11q107 45 202 123t166.5 177.5t113.5 214t42 233.5q0 124 -41.5 240.5t-119 207t-187 145
t-246.5 54.5q-136 0 -245.5 -54.5t-187 -145t-119 -207t-41.5 -240.5q0 -119 41.5 -233.5t113 -214t167 -177.5t202.5 -123l25 -11v-102h-654v139l461 -14q-114 38 -213.5 110t-173.5 170.5t-116.5 221t-42.5 261.5q0 112 27 214t77 190t121 159.5t158 122.5t188 78.5
t212 27.5z" />
    <glyph glyph-name="uni03BC" unicode="&#x3bc;" horiz-adv-x="1347" 
d="M156 -320q0 111 7 199.5t15 173t15 175t7 205.5v591h194v-603q0 -138 66 -218t199 -80q63 0 113.5 22.5t86 58.5t54.5 81.5t19 92.5v646h194v-1024h-194v132q-22 -40 -58 -71t-79 -51.5t-89 -31t-88 -10.5q-85 0 -139.5 27t-84.5 75v-390h-238z" />
    <glyph glyph-name="pi" unicode="&#x3c0;" horiz-adv-x="1250" 
d="M1093 1024v-145h-169v-628q0 -27 5 -45.5t16 -30t30 -16t47 -4.5v-155q-69 0 -117 12t-78.5 38.5t-44 69t-13.5 103.5v656h-272v-879h-156v879h-168v145h920z" />
    <glyph glyph-name="zero" unicode="0" horiz-adv-x="1604" 
d="M128 824q0 192 48.5 349.5t137 270t213 174.5t275.5 62q152 0 276 -62t213 -174.5t137.5 -270t48.5 -349.5t-48.5 -349.5t-137.5 -270t-213 -174.5t-276 -62q-151 0 -275.5 62t-213 174.5t-137 270t-48.5 349.5zM343 824q0 -154 32.5 -278.5t92.5 -212.5t145 -135.5
t189 -47.5t189 47.5t145 135.5t92.5 212.5t32.5 278.5t-32.5 278.5t-92.5 212.5t-145 135.5t-189 47.5t-189 -47.5t-145 -135.5t-92.5 -212.5t-32.5 -278.5z" />
    <glyph glyph-name="one" unicode="1" horiz-adv-x="726" 
d="M343 0v1449h-164v201h368v-1650h-204z" />
    <glyph glyph-name="two" unicode="2" horiz-adv-x="1493" 
d="M148 100q183 143 324.5 258.5t246.5 211t177 174t116 145.5t63.5 125.5t19.5 115.5q0 75 -28 141.5t-77 115.5t-114.5 77.5t-140.5 28.5q-70 0 -133 -25.5t-112.5 -70.5t-83.5 -108t-46 -138l-179 31q17 110 66 202t123 158t169.5 102.5t206.5 36.5q121 0 225 -41.5
t180.5 -114.5t120 -173.5t43.5 -217.5q0 -66 -16 -130.5t-52 -131.5t-95 -139.5t-144.5 -155.5t-200.5 -179.5t-264 -210.5h802v-187h-1197v100z" />
    <glyph glyph-name="three" unicode="3" horiz-adv-x="1273" 
d="M81 390l183 25q9 -60 38.5 -108.5t75 -83t105.5 -53.5t130 -19q75 0 135 21.5t102.5 60.5t65.5 94t23 122q0 71 -25.5 132t-69 106t-102 71t-124.5 26q-39 0 -66 -9v145h61q65 0 121 24.5t97.5 66.5t65.5 97t24 116t-23 113t-63 90.5t-93.5 60.5t-114.5 22
q-56 0 -106.5 -18.5t-91 -51.5t-68 -78.5t-38.5 -99.5l-161 27q14 88 55 160t103 123.5t141 79.5t169 28q103 0 191 -35t152.5 -95.5t101 -143t36.5 -178.5q0 -61 -16.5 -117t-46.5 -103.5t-72.5 -85.5t-94.5 -62q58 -22 106.5 -60.5t84 -91t55.5 -117.5t20 -140
q0 -104 -37.5 -192.5t-107 -153t-168.5 -101t-221 -36.5q-109 0 -202 30t-162.5 85.5t-113 133.5t-54.5 173z" />
    <glyph glyph-name="four" unicode="4" horiz-adv-x="1252" 
d="M-11 313v78l817 1259h203v-1158h192v-179h-192v-313h-193v313h-827zM261 492h555v879z" />
    <glyph glyph-name="five" unicode="5" horiz-adv-x="1355" 
d="M81 327l162 79q22 -61 62 -110.5t94 -84t120 -53.5t141 -19q89 0 162 27t124.5 76.5t79.5 119t28 155.5q0 98 -35.5 175.5t-99.5 132.5t-151.5 84t-192.5 29q-115 0 -216.5 -42t-187.5 -123l136 877h842v-179h-669l-72 -464q121 82 281 82q124 0 228 -40t179 -113.5
t117 -177.5t42 -231q0 -136 -47 -240.5t-128 -175t-189 -107t-230 -36.5q-100 0 -191 24.5t-167 70.5t-133 112.5t-89 151.5z" />
    <glyph glyph-name="six" unicode="6" horiz-adv-x="1398" 
d="M103 534q0 129 53 260.5t148 245.5l509 610h248l-502 -598q46 24 95.5 36.5t105.5 12.5q111 0 208.5 -42t169.5 -117t114 -179t42 -229t-43.5 -229t-121.5 -179t-186 -116.5t-237 -41.5q-138 0 -249.5 46t-190 124t-121 180.5t-42.5 215.5zM698 140q85 0 157.5 29t125 81
t82 123.5t29.5 155.5q0 86 -30 158.5t-82 125t-122.5 82.5t-150.5 30q-82 0 -154 -31t-125.5 -85t-84.5 -127.5t-31 -157.5q0 -79 27.5 -148.5t78 -122t121.5 -83t159 -30.5z" />
    <glyph glyph-name="seven" unicode="7" horiz-adv-x="1223" 
d="M125 0l813 1471h-790v179h1090v-65l-872 -1585h-241z" />
    <glyph glyph-name="eight" unicode="8" horiz-adv-x="1315" 
d="M112 445q0 74 22 141t61.5 123.5t96 100t125.5 70.5q-56 27 -100.5 66.5t-76 88t-48 105t-16.5 116.5q0 90 37 167.5t102 134.5t153 89.5t189 32.5q94 0 181 -30t153.5 -85.5t106.5 -133.5t40 -174q0 -61 -17 -118t-48.5 -105.5t-75.5 -88t-99 -65.5q69 -27 125.5 -71
t96.5 -100.5t61.5 -123.5t21.5 -141q0 -102 -41.5 -189t-115 -151t-173 -100t-216.5 -36q-116 0 -216 36t-173 100t-114.5 151t-41.5 190zM333 464q0 -68 24 -126t66.5 -101t102 -67t131.5 -24t132 24t102.5 67t66.5 101t24 126q0 69 -24.5 127.5t-68 101t-103 66.5
t-129.5 24q-69 0 -128 -23.5t-102.5 -66t-68.5 -101t-25 -128.5zM374 1239q0 -60 21.5 -111.5t59 -89t89.5 -59t113 -21.5t113 21.5t90 59t59.5 89t21.5 111.5t-21.5 112t-59.5 90t-90 59.5t-113 21.5t-112.5 -21.5t-89.5 -59.5t-59.5 -90t-21.5 -112z" />
    <glyph glyph-name="nine" unicode="9" horiz-adv-x="1398" 
d="M690 1680q134 0 245.5 -44t191 -121t123.5 -182.5t44 -227.5q0 -124 -51 -250t-150 -245l-509 -610h-248l512 607q-42 -29 -93 -44t-106 -15q-110 0 -209 42.5t-174 118.5t-119 180.5t-44 228.5q0 119 42 222t118.5 178.5t185 118.5t241.5 43zM309 1121q0 -84 29.5 -156
t82 -124.5t124 -82.5t154.5 -30q79 0 149 31t122 84t82 125t30 153q0 84 -28.5 154.5t-79.5 121.5t-121.5 79.5t-153.5 28.5q-84 0 -155.5 -29t-123.5 -80t-81.5 -121.5t-29.5 -153.5z" />
    <glyph glyph-name="zero.dnom" horiz-adv-x="1043" 
d="M83 536q0 125 31.5 227t89 175.5t138.5 113.5t179 40q99 0 179.5 -40t138.5 -113.5t89.5 -175.5t31.5 -227t-31.5 -227.5t-89.5 -176t-138.5 -113.5t-179.5 -40q-98 0 -179 40t-138.5 113.5t-89 176t-31.5 227.5zM223 536q0 -100 21 -181t60 -138.5t94 -88.5t123 -31
t123 31t94 88.5t60 138.5t21 181t-21 181t-60 138t-94 88t-123 31t-123 -31t-94 -88t-60 -138t-21 -181z" />
    <glyph glyph-name="one.dnom" horiz-adv-x="472" 
d="M223 0v942h-107v130h239v-1072h-132z" />
    <glyph glyph-name="two.dnom" horiz-adv-x="970" 
d="M96 65q119 93 211 168t160.5 137t115 113t75.5 94.5t41.5 81.5t12.5 75q0 49 -18.5 92t-50 75t-74 50.5t-91.5 18.5q-46 0 -87 -16.5t-73 -46t-54 -70t-30 -89.5l-117 20q11 72 43 131.5t80 102.5t110.5 67t134.5 24q78 0 146 -27t117.5 -74.5t78 -112.5t28.5 -142
q0 -65 -24 -127.5t-82 -133.5t-154.5 -157t-241.5 -197h521v-122h-778v65z" />
    <glyph glyph-name="three.dnom" horiz-adv-x="827" 
d="M53 253l119 17q6 -39 25 -70.5t48.5 -54t68.5 -35t85 -12.5q48 0 87.5 14t67 39.5t42.5 61.5t15 79q0 46 -16.5 85.5t-45 69t-66.5 46.5t-81 17q-25 0 -43 -6v94h40q42 0 78.5 16t63.5 43t42.5 63t15.5 76q0 39 -15 73t-41 59t-61 39t-74 14q-37 0 -69.5 -12t-59 -33.5
t-44.5 -51t-25 -64.5l-104 18q9 57 35.5 104t67 80t92 51.5t109.5 18.5q67 0 124 -22.5t99 -62t65.5 -93.5t23.5 -116q0 -39 -10.5 -75.5t-30 -67.5t-47 -55.5t-61.5 -40.5q38 -14 69.5 -39t54.5 -59t36 -76.5t13 -91.5q0 -67 -24.5 -124.5t-69.5 -99.5t-109 -66t-144 -24
q-71 0 -131.5 19.5t-105.5 55.5t-73.5 86.5t-35.5 112.5z" />
    <glyph glyph-name="four.dnom" horiz-adv-x="814" 
d="M-7 203v51l531 818h132v-752h125v-117h-125v-203h-125v203h-538zM170 320h361v571z" />
    <glyph glyph-name="five.dnom" horiz-adv-x="881" 
d="M53 213l105 51q14 -40 40 -72t61.5 -54.5t78.5 -35t91 -12.5q58 0 105.5 17.5t81 49.5t51.5 77.5t18 101.5q0 63 -23 114t-64.5 86.5t-98.5 54.5t-125 19q-75 0 -140.5 -27.5t-122.5 -80.5l89 570h547v-116h-435l-46 -301q79 53 182 53q81 0 148.5 -26t116 -74t76 -115
t27.5 -150q0 -88 -30.5 -156t-83 -114.5t-123 -70t-149.5 -23.5q-65 0 -124 16t-108.5 46t-86.5 73.5t-58 98.5z" />
    <glyph glyph-name="six.dnom" horiz-adv-x="909" 
d="M67 347q0 84 34.5 169.5t96.5 159.5l330 396h162l-327 -388q61 32 131 32q72 0 135 -27.5t110.5 -76t74.5 -116.5t27 -149t-28 -148.5t-79 -116.5t-121 -76t-154 -27q-90 0 -162.5 30t-123.5 80.5t-78.5 117.5t-27.5 140zM454 91q55 0 102 19t81 53t53.5 80t19.5 101
q0 56 -19.5 103t-53.5 81t-79.5 53.5t-97.5 19.5q-54 0 -100.5 -20t-81.5 -55t-55 -82.5t-20 -102.5q0 -51 18 -96.5t50.5 -79.5t79 -54t103.5 -20z" />
    <glyph glyph-name="seven.dnom" horiz-adv-x="795" 
d="M81 0l528 956h-513v116h708v-42l-566 -1030h-157z" />
    <glyph glyph-name="eight.dnom" horiz-adv-x="855" 
d="M73 289q0 48 14 92t40 80.5t62.5 65t81.5 45.5q-36 17 -65 43t-49.5 57.5t-31 68t-10.5 75.5q0 59 24 109.5t66 87.5t99 58t123 21q61 0 117.5 -19.5t100 -55.5t69.5 -87t26 -113q0 -81 -42 -146t-114 -99q45 -18 81.5 -46t62.5 -65t40 -80.5t14 -91.5q0 -66 -27 -123
t-74.5 -98.5t-112.5 -65t-141 -23.5q-75 0 -140 23.5t-112.5 65t-74.5 98t-27 123.5zM217 302q0 -44 15.5 -82t43 -65.5t66.5 -43.5t85 -16q47 0 86 16t66.5 43.5t43 65.5t15.5 82q0 45 -16 82.5t-44 65.5t-66.5 43.5t-84.5 15.5q-45 0 -83 -15.5t-66.5 -43t-44.5 -65.5
t-16 -83zM243 805q0 -39 14 -72.5t38.5 -57.5t58 -38t73.5 -14t74 14t58.5 38t38.5 57.5t14 72.5t-14 73t-38.5 58.5t-58.5 38.5t-74 14q-39 0 -73 -14t-58.5 -38.5t-38.5 -58.5t-14 -73z" />
    <glyph glyph-name="nine.dnom" horiz-adv-x="909" 
d="M449 1092q87 0 159 -28.5t124 -79t80.5 -118.5t28.5 -148t-33 -162t-98 -160l-330 -396h-162l333 395q-56 -39 -129 -39q-72 0 -136 27.5t-113 77t-77.5 117.5t-28.5 149q0 77 27 144t77 116t120.5 77t157.5 28zM201 729q0 -55 19.5 -101.5t53 -81t80 -54t100.5 -19.5
q52 0 97.5 20t79 55t53 81.5t19.5 99.5q0 54 -18.5 100t-51.5 79t-79 51.5t-100 18.5q-55 0 -101 -19t-80 -52t-53 -78.5t-19 -99.5z" />
    <glyph glyph-name="zero.numr" horiz-adv-x="1043" 
d="M83 1114q0 125 31.5 227t89 175.5t138.5 113.5t179 40q99 0 179.5 -40t138.5 -113.5t89.5 -175.5t31.5 -227t-31.5 -227.5t-89.5 -176t-138.5 -113.5t-179.5 -40q-98 0 -179 40t-138.5 113.5t-89 176t-31.5 227.5zM223 1114q0 -100 21 -181t60 -138.5t94 -88.5t123 -31
t123 31t94 88.5t60 138.5t21 181t-21 181t-60 138t-94 88t-123 31t-123 -31t-94 -88t-60 -138t-21 -181z" />
    <glyph glyph-name="one.numr" horiz-adv-x="472" 
d="M223 577v942h-107v130h239v-1072h-132z" />
    <glyph glyph-name="two.numr" horiz-adv-x="970" 
d="M96 642q119 93 211 168t160.5 137t115 113t75.5 94.5t41.5 81.5t12.5 75q0 49 -18.5 92t-50 75t-74 50.5t-91.5 18.5q-46 0 -87 -16.5t-73 -46t-54 -70t-30 -89.5l-117 20q11 72 43 131.5t80 102.5t110.5 67t134.5 24q78 0 146 -27t117.5 -74.5t78 -112.5t28.5 -142
q0 -65 -24 -127.5t-82 -133.5t-154.5 -157t-241.5 -197h521v-122h-778v65z" />
    <glyph glyph-name="three.numr" horiz-adv-x="827" 
d="M53 830l119 17q6 -39 25 -70.5t48.5 -54t68.5 -35t85 -12.5q48 0 87.5 14t67 39.5t42.5 61.5t15 79q0 46 -16.5 85.5t-45 69t-66.5 46.5t-81 17q-25 0 -43 -6v94h40q42 0 78.5 16t63.5 43t42.5 63t15.5 76q0 39 -15 73t-41 59t-61 39t-74 14q-37 0 -69.5 -12t-59 -33.5
t-44.5 -51t-25 -64.5l-104 18q9 57 35.5 104t67 80t92 51.5t109.5 18.5q67 0 124 -22.5t99 -62t65.5 -93.5t23.5 -116q0 -39 -10.5 -75.5t-30 -67.5t-47 -55.5t-61.5 -40.5q38 -14 69.5 -39t54.5 -59t36 -76.5t13 -91.5q0 -67 -24.5 -124.5t-69.5 -99.5t-109 -66t-144 -24
q-71 0 -131.5 19.5t-105.5 55.5t-73.5 86.5t-35.5 112.5z" />
    <glyph glyph-name="four.numr" horiz-adv-x="814" 
d="M-7 780v51l531 818h132v-752h125v-117h-125v-203h-125v203h-538zM170 897h361v571z" />
    <glyph glyph-name="five.numr" horiz-adv-x="881" 
d="M53 790l105 51q14 -40 40 -72t61.5 -54.5t78.5 -35t91 -12.5q58 0 105.5 17.5t81 49.5t51.5 77.5t18 101.5q0 63 -23 114t-64.5 86.5t-98.5 54.5t-125 19q-75 0 -140.5 -27.5t-122.5 -80.5l89 570h547v-116h-435l-46 -301q79 53 182 53q81 0 148.5 -26t116 -74t76 -115
t27.5 -150q0 -88 -30.5 -156t-83 -114.5t-123 -70t-149.5 -23.5q-65 0 -124 16t-108.5 46t-86.5 73.5t-58 98.5z" />
    <glyph glyph-name="six.numr" horiz-adv-x="909" 
d="M67 924q0 84 34.5 169.5t96.5 159.5l330 396h162l-327 -388q61 32 131 32q72 0 135 -27.5t110.5 -76t74.5 -116.5t27 -149t-28 -148.5t-79 -116.5t-121 -76t-154 -27q-90 0 -162.5 30t-123.5 80.5t-78.5 117.5t-27.5 140zM454 668q55 0 102 19t81 53t53.5 80t19.5 101
q0 56 -19.5 103t-53.5 81t-79.5 53.5t-97.5 19.5q-54 0 -100.5 -20t-81.5 -55t-55 -82.5t-20 -102.5q0 -51 18 -96.5t50.5 -79.5t79 -54t103.5 -20z" />
    <glyph glyph-name="seven.numr" horiz-adv-x="795" 
d="M81 577l528 956h-513v116h708v-42l-566 -1030h-157z" />
    <glyph glyph-name="eight.numr" horiz-adv-x="855" 
d="M73 866q0 48 14 92t40 80.5t62.5 65t81.5 45.5q-36 17 -65 43t-49.5 57.5t-31 68t-10.5 75.5q0 59 24 109.5t66 87.5t99 58t123 21q61 0 117.5 -19.5t100 -55.5t69.5 -87t26 -113q0 -81 -42 -146t-114 -99q45 -18 81.5 -46t62.5 -65t40 -80.5t14 -91.5q0 -66 -27 -123
t-74.5 -98.5t-112.5 -65t-141 -23.5q-75 0 -140 23.5t-112.5 65t-74.5 98t-27 123.5zM217 879q0 -44 15.5 -82t43 -65.5t66.5 -43.5t85 -16q47 0 86 16t66.5 43.5t43 65.5t15.5 82q0 45 -16 82.5t-44 65.5t-66.5 43.5t-84.5 15.5q-45 0 -83 -15.5t-66.5 -43t-44.5 -65.5
t-16 -83zM243 1382q0 -39 14 -72.5t38.5 -57.5t58 -38t73.5 -14t74 14t58.5 38t38.5 57.5t14 72.5t-14 73t-38.5 58.5t-58.5 38.5t-74 14q-39 0 -73 -14t-58.5 -38.5t-38.5 -58.5t-14 -73z" />
    <glyph glyph-name="nine.numr" horiz-adv-x="1470" 
d="M448 1669q87 0 159.5 -28.5t124.5 -79t80.5 -118.5t28.5 -148t-33 -162t-98 -160l-330 -396h-162l333 395q-56 -39 -129 -39q-72 0 -136 27.5t-113 77t-77.5 117.5t-28.5 149q0 77 27 144t77 116t120.5 77t156.5 28zM201 1306q0 -55 19.5 -101.5t53 -81t80 -54
t100.5 -19.5q51 0 96.5 20t79.5 55t53.5 81.5t19.5 99.5q0 54 -18.5 100t-51.5 79t-79 51.5t-100 18.5q-55 0 -101 -19t-80 -52t-53 -78.5t-19 -99.5z" />
    <glyph glyph-name="onesuperior" unicode="&#xb9;" horiz-adv-x="287" 
d="M132 1026v528h-80v96h175v-624h-95z" />
    <glyph glyph-name="twosuperior" unicode="&#xb2;" horiz-adv-x="570" 
d="M79 1081q95 68 162.5 124t110.5 103.5t63 88t20 77.5q0 54 -34.5 87.5t-85.5 33.5q-55 0 -94 -40t-53 -106l-85 37q9 44 30 80t51 61.5t68.5 39.5t82.5 14q48 0 89.5 -15.5t72 -44t48 -67.5t17.5 -87q0 -40 -14.5 -78t-47.5 -79.5t-88 -89.5t-136 -107h298v-87h-475v55z
" />
    <glyph glyph-name="threesuperior" unicode="&#xb3;" horiz-adv-x="536" 
d="M50 1185l91 40q2 -50 36.5 -81.5t91.5 -31.5q55 0 85 28.5t30 73.5q0 26 -10 48t-26.5 38t-39 25t-47.5 9q-16 0 -25 -4v67h26q23 0 43 8.5t35.5 23t24.5 33.5t9 41q0 21 -8 38.5t-21.5 30.5t-32 20.5t-39.5 7.5q-44 0 -76 -28.5t-36 -73.5l-79 34q14 66 65 107t132 41
q42 0 77.5 -12t61 -33t40 -51t14.5 -66q0 -45 -23.5 -84.5t-62.5 -63.5q49 -20 76 -63t27 -98q0 -42 -15.5 -76t-44 -58t-68 -36.5t-87.5 -12.5q-94 0 -151 44.5t-73 114.5z" />
    <glyph glyph-name="uni2074" unicode="&#x2074;" horiz-adv-x="589" 
d="M40 1151v36l336 463h93v-414h79v-85h-79v-111h-91v111h-338zM171 1236h207v292z" />
    <glyph glyph-name="fraction" unicode="&#x2044;" horiz-adv-x="1176" 
d="M-20 0l1083 1650h132l-1083 -1650h-132z" />
    <glyph glyph-name="uni215F" unicode="&#x215f;" horiz-adv-x="1452" 
d="M223 577v942h-107v130h239v-1072h-132zM120 0l1083 1650h132l-1083 -1650h-132z" />
    <glyph glyph-name="onehalf" unicode="&#xbd;" horiz-adv-x="1783" 
d="M908 65q119 93 211 168t160.5 137t115 113t75.5 94.5t41.5 81.5t12.5 75q0 49 -18.5 92t-50 75t-74 50.5t-91.5 18.5q-46 0 -87 -16.5t-73 -46t-54 -70t-30 -89.5l-117 20q11 72 43 131.5t80 102.5t110.5 67t134.5 24q78 0 146 -27t117.5 -74.5t78 -112.5t28.5 -142
q0 -65 -24 -127.5t-82 -133.5t-154.5 -157t-241.5 -197h521v-122h-778v65zM268 577v942h-107v130h239v-1072h-132zM116 0l1083 1650h132l-1083 -1650h-132z" />
    <glyph glyph-name="uni2189" unicode="&#x2189;" horiz-adv-x="2135" 
d="M1360 253l119 17q6 -39 25 -70.5t48.5 -54t68.5 -35t85 -12.5q48 0 87.5 14t67 39.5t42.5 61.5t15 79q0 46 -16.5 85.5t-45 69t-66.5 46.5t-81 17q-25 0 -43 -6v94h40q42 0 78.5 16t63.5 43t42.5 63t15.5 76q0 39 -15 73t-41 59t-61 39t-74 14q-37 0 -69.5 -12t-59 -33.5
t-44.5 -51t-25 -64.5l-104 18q9 57 35.5 104t67 80t92 51.5t109.5 18.5q67 0 124 -22.5t99 -62t65.5 -93.5t23.5 -116q0 -39 -10.5 -75.5t-30 -67.5t-47 -55.5t-61.5 -40.5q38 -14 69.5 -39t54.5 -59t36 -76.5t13 -91.5q0 -67 -24.5 -124.5t-69.5 -99.5t-109 -66t-144 -24
q-71 0 -131.5 19.5t-105.5 55.5t-73.5 86.5t-35.5 112.5zM83 1114q0 125 31.5 227t89 175.5t138.5 113.5t179 40q99 0 179.5 -40t138.5 -113.5t89.5 -175.5t31.5 -227t-31.5 -227.5t-89.5 -176t-138.5 -113.5t-179.5 -40q-98 0 -179 40t-138.5 113.5t-89 176t-31.5 227.5z
M223 1114q0 -100 21 -181t60 -138.5t94 -88.5t123 -31t123 31t94 88.5t60 138.5t21 181t-21 181t-60 138t-94 88t-123 31t-123 -31t-94 -88t-60 -138t-21 -181zM498 0l1083 1650h132l-1083 -1650h-132z" />
    <glyph glyph-name="onethird" unicode="&#x2153;" horiz-adv-x="1689" 
d="M914 253l119 17q6 -39 25 -70.5t48.5 -54t68.5 -35t85 -12.5q48 0 87.5 14t67 39.5t42.5 61.5t15 79q0 46 -16.5 85.5t-45 69t-66.5 46.5t-81 17q-25 0 -43 -6v94h40q42 0 78.5 16t63.5 43t42.5 63t15.5 76q0 39 -15 73t-41 59t-61 39t-74 14q-37 0 -69.5 -12t-59 -33.5
t-44.5 -51t-25 -64.5l-104 18q9 57 35.5 104t67 80t92 51.5t109.5 18.5q67 0 124 -22.5t99 -62t65.5 -93.5t23.5 -116q0 -39 -10.5 -75.5t-30 -67.5t-47 -55.5t-61.5 -40.5q38 -14 69.5 -39t54.5 -59t36 -76.5t13 -91.5q0 -67 -24.5 -124.5t-69.5 -99.5t-109 -66t-144 -24
q-71 0 -131.5 19.5t-105.5 55.5t-73.5 86.5t-35.5 112.5zM268 577v942h-107v130h239v-1072h-132zM116 0l1083 1650h132l-1083 -1650h-132z" />
    <glyph glyph-name="twothirds" unicode="&#x2154;" horiz-adv-x="2168" 
d="M1393 253l119 17q6 -39 25 -70.5t48.5 -54t68.5 -35t85 -12.5q48 0 87.5 14t67 39.5t42.5 61.5t15 79q0 46 -16.5 85.5t-45 69t-66.5 46.5t-81 17q-25 0 -43 -6v94h40q42 0 78.5 16t63.5 43t42.5 63t15.5 76q0 39 -15 73t-41 59t-61 39t-74 14q-37 0 -69.5 -12t-59 -33.5
t-44.5 -51t-25 -64.5l-104 18q9 57 35.5 104t67 80t92 51.5t109.5 18.5q67 0 124 -22.5t99 -62t65.5 -93.5t23.5 -116q0 -39 -10.5 -75.5t-30 -67.5t-47 -55.5t-61.5 -40.5q38 -14 69.5 -39t54.5 -59t36 -76.5t13 -91.5q0 -67 -24.5 -124.5t-69.5 -99.5t-109 -66t-144 -24
q-71 0 -131.5 19.5t-105.5 55.5t-73.5 86.5t-35.5 112.5zM96 642q119 93 211 168t160.5 137t115 113t75.5 94.5t41.5 81.5t12.5 75q0 49 -18.5 92t-50 75t-74 50.5t-91.5 18.5q-46 0 -87 -16.5t-73 -46t-54 -70t-30 -89.5l-117 20q11 72 43 131.5t80 102.5t110.5 67
t134.5 24q78 0 146 -27t117.5 -74.5t78 -112.5t28.5 -142q0 -65 -24 -127.5t-82 -133.5t-154.5 -157t-241.5 -197h521v-122h-778v65zM583 0l1083 1650h132l-1083 -1650h-132z" />
    <glyph glyph-name="onequarter" unicode="&#xbc;" horiz-adv-x="1465" 
d="M644 203v51l531 818h132v-752h125v-117h-125v-203h-125v203h-538zM821 320h361v571zM268 577v942h-107v130h239v-1072h-132zM116 0l1083 1650h132l-1083 -1650h-132z" />
    <glyph glyph-name="threequarters" unicode="&#xbe;" horiz-adv-x="1735" 
d="M914 203v51l531 818h132v-752h125v-117h-125v-203h-125v203h-538zM1091 320h361v571zM53 830l119 17q6 -39 25 -70.5t48.5 -54t68.5 -35t85 -12.5q48 0 87.5 14t67 39.5t42.5 61.5t15 79q0 46 -16.5 85.5t-45 69t-66.5 46.5t-81 17q-25 0 -43 -6v94h40q42 0 78.5 16
t63.5 43t42.5 63t15.5 76q0 39 -15 73t-41 59t-61 39t-74 14q-37 0 -69.5 -12t-59 -33.5t-44.5 -51t-25 -64.5l-104 18q9 57 35.5 104t67 80t92 51.5t109.5 18.5q67 0 124 -22.5t99 -62t65.5 -93.5t23.5 -116q0 -39 -10.5 -75.5t-30 -67.5t-47 -55.5t-61.5 -40.5
q38 -14 69.5 -39t54.5 -59t36 -76.5t13 -91.5q0 -67 -24.5 -124.5t-69.5 -99.5t-109 -66t-144 -24q-71 0 -131.5 19.5t-105.5 55.5t-73.5 86.5t-35.5 112.5zM363 0l1083 1650h132l-1083 -1650h-132z" />
    <glyph glyph-name="uni2155" unicode="&#x2155;" horiz-adv-x="1755" 
d="M927 213l105 51q14 -40 40 -72t61.5 -54.5t78.5 -35t91 -12.5q58 0 105.5 17.5t81 49.5t51.5 77.5t18 101.5q0 63 -23 114t-64.5 86.5t-98.5 54.5t-125 19q-75 0 -140.5 -27.5t-122.5 -80.5l89 570h547v-116h-435l-46 -301q79 53 182 53q81 0 148.5 -26t116 -74t76 -115
t27.5 -150q0 -88 -30.5 -156t-83 -114.5t-123 -70t-149.5 -23.5q-65 0 -124 16t-108.5 46t-86.5 73.5t-58 98.5zM268 577v942h-107v130h239v-1072h-132zM116 0l1083 1650h132l-1083 -1650h-132z" />
    <glyph glyph-name="uni2156" unicode="&#x2156;" horiz-adv-x="2170" 
d="M1342 213l105 51q14 -40 40 -72t61.5 -54.5t78.5 -35t91 -12.5q58 0 105.5 17.5t81 49.5t51.5 77.5t18 101.5q0 63 -23 114t-64.5 86.5t-98.5 54.5t-125 19q-75 0 -140.5 -27.5t-122.5 -80.5l89 570h547v-116h-435l-46 -301q79 53 182 53q81 0 148.5 -26t116 -74t76 -115
t27.5 -150q0 -88 -30.5 -156t-83 -114.5t-123 -70t-149.5 -23.5q-65 0 -124 16t-108.5 46t-86.5 73.5t-58 98.5zM96 642q119 93 211 168t160.5 137t115 113t75.5 94.5t41.5 81.5t12.5 75q0 49 -18.5 92t-50 75t-74 50.5t-91.5 18.5q-46 0 -87 -16.5t-73 -46t-54 -70
t-30 -89.5l-117 20q11 72 43 131.5t80 102.5t110.5 67t134.5 24q78 0 146 -27t117.5 -74.5t78 -112.5t28.5 -142q0 -65 -24 -127.5t-82 -133.5t-154.5 -157t-241.5 -197h521v-122h-778v65zM583 0l1083 1650h132l-1083 -1650h-132z" />
    <glyph glyph-name="uni2157" unicode="&#x2157;" horiz-adv-x="2002" 
d="M1174 213l105 51q14 -40 40 -72t61.5 -54.5t78.5 -35t91 -12.5q58 0 105.5 17.5t81 49.5t51.5 77.5t18 101.5q0 63 -23 114t-64.5 86.5t-98.5 54.5t-125 19q-75 0 -140.5 -27.5t-122.5 -80.5l89 570h547v-116h-435l-46 -301q79 53 182 53q81 0 148.5 -26t116 -74t76 -115
t27.5 -150q0 -88 -30.5 -156t-83 -114.5t-123 -70t-149.5 -23.5q-65 0 -124 16t-108.5 46t-86.5 73.5t-58 98.5zM53 830l119 17q6 -39 25 -70.5t48.5 -54t68.5 -35t85 -12.5q48 0 87.5 14t67 39.5t42.5 61.5t15 79q0 46 -16.5 85.5t-45 69t-66.5 46.5t-81 17q-25 0 -43 -6
v94h40q42 0 78.5 16t63.5 43t42.5 63t15.5 76q0 39 -15 73t-41 59t-61 39t-74 14q-37 0 -69.5 -12t-59 -33.5t-44.5 -51t-25 -64.5l-104 18q9 57 35.5 104t67 80t92 51.5t109.5 18.5q67 0 124 -22.5t99 -62t65.5 -93.5t23.5 -116q0 -39 -10.5 -75.5t-30 -67.5t-47 -55.5
t-61.5 -40.5q38 -14 69.5 -39t54.5 -59t36 -76.5t13 -91.5q0 -67 -24.5 -124.5t-69.5 -99.5t-109 -66t-144 -24q-71 0 -131.5 19.5t-105.5 55.5t-73.5 86.5t-35.5 112.5zM390 0l1083 1650h132l-1083 -1650h-132z" />
    <glyph glyph-name="uni2158" unicode="&#x2158;" horiz-adv-x="2068" 
d="M1240 213l105 51q14 -40 40 -72t61.5 -54.5t78.5 -35t91 -12.5q58 0 105.5 17.5t81 49.5t51.5 77.5t18 101.5q0 63 -23 114t-64.5 86.5t-98.5 54.5t-125 19q-75 0 -140.5 -27.5t-122.5 -80.5l89 570h547v-116h-435l-46 -301q79 53 182 53q81 0 148.5 -26t116 -74t76 -115
t27.5 -150q0 -88 -30.5 -156t-83 -114.5t-123 -70t-149.5 -23.5q-65 0 -124 16t-108.5 46t-86.5 73.5t-58 98.5zM-7 780v51l531 818h132v-752h125v-117h-125v-203h-125v203h-538zM170 897h361v571zM422 0l1083 1650h132l-1083 -1650h-132z" />
    <glyph glyph-name="uni2159" unicode="&#x2159;" horiz-adv-x="1612" 
d="M770 347q0 84 34.5 169.5t96.5 159.5l330 396h162l-327 -388q61 32 131 32q72 0 135 -27.5t110.5 -76t74.5 -116.5t27 -149t-28 -148.5t-79 -116.5t-121 -76t-154 -27q-90 0 -162.5 30t-123.5 80.5t-78.5 117.5t-27.5 140zM1157 91q55 0 102 19t81 53t53.5 80t19.5 101
q0 56 -19.5 103t-53.5 81t-79.5 53.5t-97.5 19.5q-54 0 -100.5 -20t-81.5 -55t-55 -82.5t-20 -102.5q0 -51 18 -96.5t50.5 -79.5t79 -54t103.5 -20zM268 577v942h-107v130h239v-1072h-132zM116 0l1083 1650h132l-1083 -1650h-132z" />
    <glyph glyph-name="uni215A" unicode="&#x215a;" horiz-adv-x="1925" 
d="M1084 347q0 84 34.5 169.5t96.5 159.5l330 396h162l-327 -388q61 32 131 32q72 0 135 -27.5t110.5 -76t74.5 -116.5t27 -149t-28 -148.5t-79 -116.5t-121 -76t-154 -27q-90 0 -162.5 30t-123.5 80.5t-78.5 117.5t-27.5 140zM1471 91q55 0 102 19t81 53t53.5 80t19.5 101
q0 56 -19.5 103t-53.5 81t-79.5 53.5t-97.5 19.5q-54 0 -100.5 -20t-81.5 -55t-55 -82.5t-20 -102.5q0 -51 18 -96.5t50.5 -79.5t79 -54t103.5 -20zM53 793l105 51q14 -40 40 -72t61.5 -54.5t78.5 -35t91 -12.5q58 0 105.5 17.5t81 49.5t51.5 77.5t18 101.5q0 63 -23 114
t-64.5 86.5t-98.5 54.5t-125 19q-75 0 -140.5 -27.5t-122.5 -80.5l89 570h547v-116h-435l-46 -301q79 53 182 53q81 0 148.5 -26t116 -74t76 -115t27.5 -150q0 -88 -30.5 -156t-83 -114.5t-123 -70t-149.5 -23.5q-65 0 -124 16t-108.5 46t-86.5 73.5t-58 98.5zM394 0
l1083 1650h132l-1083 -1650h-132z" />
    <glyph glyph-name="uni2150" unicode="&#x2150;" horiz-adv-x="1840" 
d="M1000 0l528 956h-513v116h708v-42l-566 -1030h-157zM268 577v942h-107v130h239v-1072h-132zM116 0l1083 1650h132l-1083 -1650h-132z" />
    <glyph glyph-name="oneeighth" unicode="&#x215b;" horiz-adv-x="1723" 
d="M941 289q0 48 14 92t40 80.5t62.5 65t81.5 45.5q-36 17 -65 43t-49.5 57.5t-31 68t-10.5 75.5q0 59 24 109.5t66 87.5t99 58t123 21q61 0 117.5 -19.5t100 -55.5t69.5 -87t26 -113q0 -81 -42 -146t-114 -99q45 -18 81.5 -46t62.5 -65t40 -80.5t14 -91.5q0 -66 -27 -123
t-74.5 -98.5t-112.5 -65t-141 -23.5q-75 0 -140 23.5t-112.5 65t-74.5 98t-27 123.5zM1085 302q0 -44 15.5 -82t43 -65.5t66.5 -43.5t85 -16q47 0 86 16t66.5 43.5t43 65.5t15.5 82q0 45 -16 82.5t-44 65.5t-66.5 43.5t-84.5 15.5q-45 0 -83 -15.5t-66.5 -43t-44.5 -65.5
t-16 -83zM1111 805q0 -39 14 -72.5t38.5 -57.5t58 -38t73.5 -14t74 14t58.5 38t38.5 57.5t14 72.5t-14 73t-38.5 58.5t-58.5 38.5t-74 14q-39 0 -73 -14t-58.5 -38.5t-38.5 -58.5t-14 -73zM268 577v942h-107v130h239v-1072h-132zM116 0l1083 1650h132l-1083 -1650h-132z" />
    <glyph glyph-name="threeeighths" unicode="&#x215c;" horiz-adv-x="1975" 
d="M1193 289q0 48 14 92t40 80.5t62.5 65t81.5 45.5q-36 17 -65 43t-49.5 57.5t-31 68t-10.5 75.5q0 59 24 109.5t66 87.5t99 58t123 21q61 0 117.5 -19.5t100 -55.5t69.5 -87t26 -113q0 -81 -42 -146t-114 -99q45 -18 81.5 -46t62.5 -65t40 -80.5t14 -91.5q0 -66 -27 -123
t-74.5 -98.5t-112.5 -65t-141 -23.5q-75 0 -140 23.5t-112.5 65t-74.5 98t-27 123.5zM1337 302q0 -44 15.5 -82t43 -65.5t66.5 -43.5t85 -16q47 0 86 16t66.5 43.5t43 65.5t15.5 82q0 45 -16 82.5t-44 65.5t-66.5 43.5t-84.5 15.5q-45 0 -83 -15.5t-66.5 -43t-44.5 -65.5
t-16 -83zM1363 805q0 -39 14 -72.5t38.5 -57.5t58 -38t73.5 -14t74 14t58.5 38t38.5 57.5t14 72.5t-14 73t-38.5 58.5t-58.5 38.5t-74 14q-39 0 -73 -14t-58.5 -38.5t-38.5 -58.5t-14 -73zM53 830l119 17q6 -39 25 -70.5t48.5 -54t68.5 -35t85 -12.5q48 0 87.5 14t67 39.5
t42.5 61.5t15 79q0 46 -16.5 85.5t-45 69t-66.5 46.5t-81 17q-25 0 -43 -6v94h40q42 0 78.5 16t63.5 43t42.5 63t15.5 76q0 39 -15 73t-41 59t-61 39t-74 14q-37 0 -69.5 -12t-59 -33.5t-44.5 -51t-25 -64.5l-104 18q9 57 35.5 104t67 80t92 51.5t109.5 18.5q67 0 124 -22.5
t99 -62t65.5 -93.5t23.5 -116q0 -39 -10.5 -75.5t-30 -67.5t-47 -55.5t-61.5 -40.5q38 -14 69.5 -39t54.5 -59t36 -76.5t13 -91.5q0 -67 -24.5 -124.5t-69.5 -99.5t-109 -66t-144 -24q-71 0 -131.5 19.5t-105.5 55.5t-73.5 86.5t-35.5 112.5zM390 0l1083 1650h132
l-1083 -1650h-132z" />
    <glyph glyph-name="fiveeighths" unicode="&#x215d;" horiz-adv-x="1982" 
d="M1200 289q0 48 14 92t40 80.5t62.5 65t81.5 45.5q-36 17 -65 43t-49.5 57.5t-31 68t-10.5 75.5q0 59 24 109.5t66 87.5t99 58t123 21q61 0 117.5 -19.5t100 -55.5t69.5 -87t26 -113q0 -81 -42 -146t-114 -99q45 -18 81.5 -46t62.5 -65t40 -80.5t14 -91.5q0 -66 -27 -123
t-74.5 -98.5t-112.5 -65t-141 -23.5q-75 0 -140 23.5t-112.5 65t-74.5 98t-27 123.5zM1344 302q0 -44 15.5 -82t43 -65.5t66.5 -43.5t85 -16q47 0 86 16t66.5 43.5t43 65.5t15.5 82q0 45 -16 82.5t-44 65.5t-66.5 43.5t-84.5 15.5q-45 0 -83 -15.5t-66.5 -43t-44.5 -65.5
t-16 -83zM1370 805q0 -39 14 -72.5t38.5 -57.5t58 -38t73.5 -14t74 14t58.5 38t38.5 57.5t14 72.5t-14 73t-38.5 58.5t-58.5 38.5t-74 14q-39 0 -73 -14t-58.5 -38.5t-38.5 -58.5t-14 -73zM53 793l105 51q14 -40 40 -72t61.5 -54.5t78.5 -35t91 -12.5q58 0 105.5 17.5
t81 49.5t51.5 77.5t18 101.5q0 63 -23 114t-64.5 86.5t-98.5 54.5t-125 19q-75 0 -140.5 -27.5t-122.5 -80.5l89 570h547v-116h-435l-46 -301q79 53 182 53q81 0 148.5 -26t116 -74t76 -115t27.5 -150q0 -88 -30.5 -156t-83 -114.5t-123 -70t-149.5 -23.5q-65 0 -124 16
t-108.5 46t-86.5 73.5t-58 98.5zM396 0l1083 1650h132l-1083 -1650h-132z" />
    <glyph glyph-name="seveneighths" unicode="&#x215e;" horiz-adv-x="1711" 
d="M929 289q0 48 14 92t40 80.5t62.5 65t81.5 45.5q-36 17 -65 43t-49.5 57.5t-31 68t-10.5 75.5q0 59 24 109.5t66 87.5t99 58t123 21q61 0 117.5 -19.5t100 -55.5t69.5 -87t26 -113q0 -81 -42 -146t-114 -99q45 -18 81.5 -46t62.5 -65t40 -80.5t14 -91.5q0 -66 -27 -123
t-74.5 -98.5t-112.5 -65t-141 -23.5q-75 0 -140 23.5t-112.5 65t-74.5 98t-27 123.5zM1073 302q0 -44 15.5 -82t43 -65.5t66.5 -43.5t85 -16q47 0 86 16t66.5 43.5t43 65.5t15.5 82q0 45 -16 82.5t-44 65.5t-66.5 43.5t-84.5 15.5q-45 0 -83 -15.5t-66.5 -43t-44.5 -65.5
t-16 -83zM1099 805q0 -39 14 -72.5t38.5 -57.5t58 -38t73.5 -14t74 14t58.5 38t38.5 57.5t14 72.5t-14 73t-38.5 58.5t-58.5 38.5t-74 14q-39 0 -73 -14t-58.5 -38.5t-38.5 -58.5t-14 -73zM81 577l528 956h-513v116h708v-42l-566 -1030h-157zM112 0l1083 1650h132
l-1083 -1650h-132z" />
    <glyph glyph-name="uni2151" unicode="&#x2151;" horiz-adv-x="1808" 
d="M1348 1092q87 0 159 -28.5t124 -79t80.5 -118.5t28.5 -148t-33 -162t-98 -160l-330 -396h-162l333 395q-56 -39 -129 -39q-72 0 -136 27.5t-113 77t-77.5 117.5t-28.5 149q0 77 27 144t77 116t120.5 77t157.5 28zM1100 729q0 -55 19.5 -101.5t53 -81t80 -54t100.5 -19.5
q52 0 97.5 20t79 55t53 81.5t19.5 99.5q0 54 -18.5 100t-51.5 79t-79 51.5t-100 18.5q-55 0 -101 -19t-80 -52t-53 -78.5t-19 -99.5zM268 577v942h-107v130h239v-1072h-132zM116 0l1083 1650h132l-1083 -1650h-132z" />
    <glyph glyph-name="uni2152" unicode="&#x2152;" horiz-adv-x="2406" 
d="M1446 536q0 125 31.5 227t89 175.5t138.5 113.5t179 40q99 0 179.5 -40t138.5 -113.5t89.5 -175.5t31.5 -227t-31.5 -227.5t-89.5 -176t-138.5 -113.5t-179.5 -40q-98 0 -179 40t-138.5 113.5t-89 176t-31.5 227.5zM1586 536q0 -100 21 -181t60 -138.5t94 -88.5t123 -31
t123 31t94 88.5t60 138.5t21 181t-21 181t-60 138t-94 88t-123 31t-123 -31t-94 -88t-60 -138t-21 -181zM1195 0v942h-107v130h239v-1072h-132zM268 577v942h-107v130h239v-1072h-132zM116 0l1083 1650h132l-1083 -1650h-132z" />
    <glyph glyph-name="period" unicode="." horiz-adv-x="500" 
d="M118 100q0 27 10.5 51t28.5 42t42 28.5t51 10.5t51 -10.5t42 -28.5t28.5 -42t10.5 -51t-10.5 -51t-28.5 -42t-42 -28.5t-51 -10.5t-51 10.5t-42 28.5t-28.5 42t-10.5 51z" />
    <glyph glyph-name="comma" unicode="," horiz-adv-x="506" 
d="M252 232q28 0 53 -10t43.5 -29.5t29 -48t10.5 -65.5q0 -43 -15 -90t-41.5 -93.5t-63.5 -90t-81 -79.5l-53 44q15 16 30 40t27 52t20.5 57.5t11.5 57.5q-48 10 -76.5 44t-28.5 81q0 27 10.5 51t28.5 41.5t42.5 27.5t52.5 10z" />
    <glyph glyph-name="colon" unicode=":" horiz-adv-x="500" 
d="M118 100q0 27 10.5 51t28.5 42t42 28.5t51 10.5t51 -10.5t42 -28.5t28.5 -42t10.5 -51t-10.5 -51t-28.5 -42t-42 -28.5t-51 -10.5t-51 10.5t-42 28.5t-28.5 42t-10.5 51zM118 1000q0 27 10.5 51t28.5 42t42 28.5t51 10.5t51 -10.5t42 -28.5t28.5 -42t10.5 -51t-10.5 -51
t-28.5 -42t-42 -28.5t-51 -10.5t-51 10.5t-42 28.5t-28.5 42t-10.5 51z" />
    <glyph glyph-name="semicolon" unicode=";" horiz-adv-x="524" 
d="M118 1000q0 27 10.5 51t28.5 42t42 28.5t51 10.5t51 -10.5t42 -28.5t28.5 -42t10.5 -51t-10.5 -51t-28.5 -42t-42 -28.5t-51 -10.5t-51 10.5t-42 28.5t-28.5 42t-10.5 51zM270 232q28 0 53 -10t43.5 -29.5t29 -48t10.5 -65.5q0 -43 -15 -90t-41.5 -93.5t-63.5 -90
t-81 -79.5l-53 44q15 16 30 40t27 52t20.5 57.5t11.5 57.5q-48 10 -76.5 44t-28.5 81q0 27 10.5 51t28.5 41.5t42.5 27.5t52.5 10z" />
    <glyph glyph-name="ellipsis" unicode="&#x2026;" horiz-adv-x="1368" 
d="M118 100q0 27 10.5 51t28.5 42t42 28.5t51 10.5t51 -10.5t42 -28.5t28.5 -42t10.5 -51t-10.5 -51t-28.5 -42t-42 -28.5t-51 -10.5t-51 10.5t-42 28.5t-28.5 42t-10.5 51zM553 100q0 27 10.5 51t28.5 42t42 28.5t51 10.5t51 -10.5t42 -28.5t28.5 -42t10.5 -51t-10.5 -51
t-28.5 -42t-42 -28.5t-51 -10.5t-51 10.5t-42 28.5t-28.5 42t-10.5 51zM986 100q0 27 10.5 51t28.5 42t42 28.5t51 10.5t51 -10.5t42 -28.5t28.5 -42t10.5 -51t-10.5 -51t-28.5 -42t-42 -28.5t-51 -10.5t-51 10.5t-42 28.5t-28.5 42t-10.5 51z" />
    <glyph glyph-name="exclam" unicode="!" horiz-adv-x="622" 
d="M407 1720l-23 -1290h-146l-23 1290h192zM179 100q0 27 10.5 51t28.5 42t42 28.5t51 10.5t51 -10.5t42 -28.5t28.5 -42t10.5 -51t-10.5 -51t-28.5 -42t-42 -28.5t-51 -10.5t-51 10.5t-42 28.5t-28.5 42t-10.5 51z" />
    <glyph glyph-name="exclamdown" unicode="&#xa1;" horiz-adv-x="622" 
d="M215 -522l23 1290h146l23 -1290h-192zM443 1098q0 -27 -10.5 -51t-28.5 -42t-42 -28.5t-51 -10.5t-51 10.5t-42 28.5t-28.5 42t-10.5 51t10.5 51t28.5 42t42 28.5t51 10.5t51 -10.5t42 -28.5t28.5 -42t10.5 -51z" />
    <glyph glyph-name="question" unicode="?" horiz-adv-x="1185" 
d="M571 1680q114 0 210 -38.5t165.5 -105.5t108.5 -157.5t39 -193.5q0 -97 -33.5 -182.5t-94.5 -151.5t-144.5 -107t-184.5 -49v-246h-180v419q20 -5 42 -7t49 -2q80 0 146.5 21.5t114.5 63.5t74.5 103t26.5 139q0 75 -24.5 134t-69 100t-107 63t-138.5 22
q-140 0 -228.5 -72.5t-108.5 -202.5l-164 37q16 99 61 176t111.5 129.5t150.5 80t178 27.5zM547 232q27 0 51 -10.5t42 -28.5t28.5 -42t10.5 -51t-10.5 -51t-28.5 -42t-42 -28.5t-51 -10.5t-51 10.5t-42 28.5t-28.5 42t-10.5 51t10.5 51t28.5 42t42 28.5t51 10.5z" />
    <glyph glyph-name="questiondown" unicode="&#xbf;" horiz-adv-x="1185" 
d="M614 -550q-114 0 -210 38.5t-165.5 105.5t-108.5 157.5t-39 193.5q0 97 33.5 182.5t94.5 151.5t145 107t184 49v246h180v-419q-20 5 -42 7t-49 2q-80 0 -146.5 -21.5t-114.5 -63.5t-74.5 -103t-26.5 -139q0 -75 24.5 -134t69 -100t107 -63t138.5 -22q140 0 228.5 72.5
t108.5 202.5l164 -37q-16 -99 -61 -176t-111.5 -129.5t-150.5 -80t-178 -27.5zM638 898q-27 0 -51 10.5t-42 28.5t-28.5 42t-10.5 51t10.5 51t28.5 42t42 28.5t51 10.5t51 -10.5t42 -28.5t28.5 -42t10.5 -51t-10.5 -51t-28.5 -42t-42 -28.5t-51 -10.5z" />
    <glyph glyph-name="periodcentered" unicode="&#xb7;" horiz-adv-x="500" 
d="M118 539q0 27 10.5 51t28.5 42t42 28.5t51 10.5t51 -10.5t42 -28.5t28.5 -42t10.5 -51t-10.5 -51t-28.5 -42t-42 -28.5t-51 -10.5t-51 10.5t-42 28.5t-28.5 42t-10.5 51z" />
    <glyph glyph-name="bullet" unicode="&#x2022;" horiz-adv-x="660" 
d="M118 714q0 44 16.5 83t45 67.5t67.5 45t83 16.5t83 -16.5t67.5 -45t45 -67.5t16.5 -83t-16.5 -83t-45 -67.5t-67.5 -45t-83 -16.5t-83 16.5t-67.5 45t-45 67.5t-16.5 83z" />
    <glyph glyph-name="asterisk" unicode="*" horiz-adv-x="719" 
d="M245 1224l-73 50l111 161l-186 63l29 87l186 -58v193h96v-193l186 58l28 -87l-185 -63l110 -161l-72 -50l-116 153z" />
    <glyph glyph-name="numbersign" unicode="#" horiz-adv-x="1460" 
d="M149 558h205l52 382h-257v133h273l55 425h133l-56 -425h387l56 425h133l-57 -425h191v-133h-207l-52 -382h259v-133h-275l-55 -425h-132l55 425h-388l-55 -425h-132l55 425h-188v133zM874 558l51 382h-387l-52 -382h388z" />
    <glyph glyph-name="slash" unicode="/" horiz-adv-x="1070" 
d="M41 -240l824 1960h163l-824 -1960h-163z" />
    <glyph glyph-name="backslash" unicode="\" horiz-adv-x="1068" 
d="M865 0l-824 1720h163l824 -1720h-163z" />
    <glyph glyph-name="parenleft" unicode="(" horiz-adv-x="729" 
d="M151 614q0 194 34.5 367t88 318.5t118.5 259.5t125 191l126 -54q-52 -76 -106.5 -185.5t-98.5 -246.5t-72.5 -300.5t-28.5 -349.5q0 -181 28 -343t72 -299.5t98.5 -248t107.5 -189.5l-126 -54q-60 77 -125 191.5t-118.5 259t-88 317t-34.5 366.5z" />
    <glyph glyph-name="parenright" unicode=")" horiz-adv-x="729" 
d="M562 615q0 194 -34.5 367t-88 318.5t-118.5 259.5t-125 191l-126 -54q52 -76 106.5 -185.5t98.5 -246.5t72.5 -300.5t28.5 -349.5q0 -181 -28 -343t-72 -299.5t-98.5 -248t-107.5 -189.5l126 -54q60 77 125 191.5t118.5 259t88 317t34.5 366.5z" />
    <glyph glyph-name="braceleft" unicode="{" horiz-adv-x="738" 
d="M151 544v112q49 0 75 24.5t26 81.5v596q0 62 13.5 126.5t49.5 117t97.5 85.5t157.5 33h106v-148h-53q-99 0 -149 -60.5t-50 -167.5v-604q0 -57 -20 -90t-52 -50q32 -17 52 -51t20 -89v-604q0 -107 50 -167.5t149 -60.5h53v-148h-106q-96 0 -157.5 33t-97.5 85.5
t-49.5 117t-13.5 126.5v596q0 57 -26 81.5t-75 24.5z" />
    <glyph glyph-name="braceright" unicode="}" horiz-adv-x="738" 
d="M562 656v-112q-49 0 -75 -24.5t-26 -81.5v-596q0 -62 -13.5 -126.5t-49.5 -117t-97.5 -85.5t-157.5 -33h-106v148h53q99 0 149 60.5t50 167.5v604q0 57 20 90t52 50q-32 17 -52 51t-20 89v604q0 107 -50 167.5t-149 60.5h-53v148h106q96 0 157.5 -33t97.5 -85.5
t49.5 -117t13.5 -126.5v-596q0 -57 26 -81.5t75 -24.5z" />
    <glyph glyph-name="bracketleft" unicode="[" horiz-adv-x="721" 
d="M650 1720v-138h-301v-1964h301v-138h-472v2240h472z" />
    <glyph glyph-name="bracketright" unicode="]" horiz-adv-x="723" 
d="M125 -520v138h301v1964h-301v138h472v-2240h-472z" />
    <glyph glyph-name="hyphen" unicode="-" horiz-adv-x="932" 
d="M144 496v167h644v-167h-644z" />
    <glyph glyph-name="uni00AD" unicode="&#xad;" horiz-adv-x="932" 
d="M144 496v167h644v-167h-644z" />
    <glyph glyph-name="endash" unicode="&#x2013;" horiz-adv-x="1204" 
d="M144 496v166h916v-166h-916z" />
    <glyph glyph-name="emdash" unicode="&#x2014;" horiz-adv-x="2094" 
d="M144 496v166h1806v-166h-1806z" />
    <glyph glyph-name="underscore" unicode="_" horiz-adv-x="1026" 
d="M0 -201v100h1026v-100h-1026z" />
    <glyph glyph-name="quotesinglbase" unicode="&#x201a;" horiz-adv-x="488" 
d="M243 224q26 0 49.5 -9.5t40.5 -27.5t27 -44.5t10 -61.5q0 -40 -14 -84t-38.5 -87t-59 -83.5t-76.5 -74.5l-49 41q14 15 27.5 37.5t25 48.5t19.5 53.5t11 53.5q-45 9 -71.5 41t-26.5 76q0 26 9.5 48t26.5 38t39.5 25.5t49.5 9.5z" />
    <glyph glyph-name="quotedblbase" unicode="&#x201e;" horiz-adv-x="804" 
d="M243 224q26 0 49.5 -9.5t40.5 -27.5t27 -44.5t10 -61.5q0 -40 -14 -84t-38.5 -87t-59 -83.5t-76.5 -74.5l-49 41q14 15 27.5 37.5t25 48.5t19.5 53.5t11 53.5q-45 9 -71.5 41t-26.5 76q0 26 9.5 48t26.5 38t39.5 25.5t49.5 9.5zM559 224q26 0 49.5 -9.5t40.5 -27.5
t27 -44.5t10 -61.5q0 -40 -14 -84t-38.5 -87t-59 -83.5t-76.5 -74.5l-49 41q14 15 27.5 37.5t25 48.5t19.5 53.5t11 53.5q-45 9 -71.5 41t-26.5 76q0 26 9.5 48t26.5 38t39.5 25.5t49.5 9.5z" />
    <glyph glyph-name="quotedblleft" unicode="&#x201c;" horiz-adv-x="804" 
d="M561 1206q-26 0 -49 9.5t-40.5 27.5t-27.5 45t-10 61q0 40 14 84t38.5 87t59 83.5t76.5 74.5l49 -41q-14 -15 -27.5 -37.5t-25 -48.5t-19.5 -53.5t-11 -53.5q45 -9 71.5 -41t26.5 -76q0 -25 -9.5 -47.5t-26.5 -38.5t-39.5 -25.5t-49.5 -9.5zM245 1206q-26 0 -49 9.5
t-40.5 27.5t-27.5 45t-10 61q0 40 14 84t38.5 87t59 83.5t76.5 74.5l49 -41q-14 -15 -27.5 -37.5t-25 -48.5t-19.5 -53.5t-11 -53.5q45 -9 71.5 -41t26.5 -76q0 -25 -9.5 -47.5t-26.5 -38.5t-39.5 -25.5t-49.5 -9.5z" />
    <glyph glyph-name="quotedblright" unicode="&#x201d;" horiz-adv-x="804" 
d="M243 1680q26 0 49.5 -9.5t40.5 -27.5t27 -44.5t10 -61.5q0 -40 -14 -84t-38.5 -87t-59 -83.5t-76.5 -74.5l-49 41q14 15 27.5 37.5t25 48.5t19.5 53.5t11 53.5q-45 9 -71.5 41t-26.5 76q0 26 9.5 48t26.5 38t39.5 25.5t49.5 9.5zM559 1680q26 0 49.5 -9.5t40.5 -27.5
t27 -44.5t10 -61.5q0 -40 -14 -84t-38.5 -87t-59 -83.5t-76.5 -74.5l-49 41q14 15 27.5 37.5t25 48.5t19.5 53.5t11 53.5q-45 9 -71.5 41t-26.5 76q0 26 9.5 48t26.5 38t39.5 25.5t49.5 9.5z" />
    <glyph glyph-name="quoteleft" unicode="&#x2018;" horiz-adv-x="488" 
d="M245 1206q-26 0 -49 9.5t-40.5 27.5t-27.5 45t-10 61q0 40 14 84t38.5 87t59 83.5t76.5 74.5l49 -41q-14 -15 -27.5 -37.5t-25 -48.5t-19.5 -53.5t-11 -53.5q45 -9 71.5 -41t26.5 -76q0 -25 -9.5 -47.5t-26.5 -38.5t-39.5 -25.5t-49.5 -9.5z" />
    <glyph glyph-name="quoteright" unicode="&#x2019;" horiz-adv-x="488" 
d="M243 1680q26 0 49.5 -9.5t40.5 -27.5t27 -44.5t10 -61.5q0 -40 -14 -84t-38.5 -87t-59 -83.5t-76.5 -74.5l-49 41q14 15 27.5 37.5t25 48.5t19.5 53.5t11 53.5q-45 9 -71.5 41t-26.5 76q0 26 9.5 48t26.5 38t39.5 25.5t49.5 9.5z" />
    <glyph glyph-name="guillemotleft" unicode="&#xab;" horiz-adv-x="1055" 
d="M849 56l-390 500l390 500l111 -87l-323 -413l323 -413zM451 56l-390 500l390 500l111 -87l-323 -413l323 -413z" />
    <glyph glyph-name="guillemotright" unicode="&#xbb;" horiz-adv-x="1057" 
d="M207 56l-111 87l323 413l-323 413l111 87l390 -500zM605 56l-111 87l323 413l-323 413l111 87l390 -500z" />
    <glyph glyph-name="guilsinglleft" unicode="&#x2039;" horiz-adv-x="657" 
d="M451 57l-390 500l390 500l111 -87l-322 -413l322 -413z" />
    <glyph glyph-name="guilsinglright" unicode="&#x203a;" horiz-adv-x="659" 
d="M207 57l-111 87l323 413l-323 413l111 87l390 -500z" />
    <glyph glyph-name="quotedbl" unicode="&#x22;" horiz-adv-x="712" 
d="M154 1231l-36 489h196l-36 -489h-124zM434 1231l-36 489h196l-36 -489h-124z" />
    <glyph glyph-name="quotesingle" unicode="'" horiz-adv-x="432" 
d="M154 1231l-36 489h196l-36 -489h-124z" />
    <glyph glyph-name="uni00A0" unicode="&#xa0;" horiz-adv-x="518" 
 />
    <glyph glyph-name="cent" unicode="&#xa2;" horiz-adv-x="1093" 
d="M56 512q0 104 35.5 195.5t99 163t151 118.5t190.5 61v222h124v-217q90 -6 169.5 -34.5t136.5 -73.5l-87 -122q-48 34 -107.5 51.5t-125.5 17.5q-87 0 -158 -30t-121 -82t-77.5 -121.5t-27.5 -148.5t27.5 -148.5t77.5 -121.5t121 -82t158 -30q66 0 125.5 17.5t107.5 51.5
l87 -122q-48 -38 -113 -64.5t-140 -37.5v-233h-125v227q-113 6 -210 50t-167.5 117t-110.5 169.5t-40 206.5z" />
    <glyph glyph-name="currency" unicode="&#xa4;" horiz-adv-x="1259" 
d="M269 351q-47 59 -73.5 131.5t-26.5 156.5t26.5 156.5t73.5 131.5l-137 136l73 73l136 -137q59 48 132 74.5t156 26.5t156 -26.5t132 -74.5l136 137l73 -73l-137 -136q47 -59 73.5 -131.5t26.5 -156.5t-26.5 -156.5t-73.5 -131.5l137 -136l-73 -73l-136 137
q-59 -48 -132 -74.5t-156 -26.5t-156 26.5t-132 74.5l-136 -137l-73 73zM629 338q64 0 119 23t95.5 63.5t64 95.5t23.5 119t-23.5 119t-64 95.5t-95.5 63.5t-119 23t-119 -23t-95.5 -63.5t-64 -95.5t-23.5 -119t23.5 -119t64 -95.5t95.5 -63.5t119 -23z" />
    <glyph glyph-name="dollar" unicode="$" horiz-adv-x="1309" 
d="M61 269l141 102q39 -48 87.5 -87.5t103.5 -68t115 -44t122 -15.5q66 0 125.5 19t104.5 55t71.5 88.5t26.5 120.5q0 58 -20 104.5t-65 87t-118.5 78t-181.5 77.5q-214 80 -315 190.5t-101 259.5q0 90 34 169.5t96.5 139.5t149.5 96t193 39v246h125v-255h-8q57 -10 108 -30
t93.5 -46t76.5 -56t57 -62l-128 -113q-26 26 -59.5 49.5t-73.5 41.5t-85 28.5t-94 10.5q-69 0 -122.5 -21t-90.5 -56t-56 -81.5t-19 -96.5q0 -46 18.5 -86.5t57.5 -76.5t100 -69t147 -64q125 -45 218.5 -94t155.5 -107.5t93.5 -131t31.5 -165.5q0 -99 -31.5 -179t-88 -139.5
t-133.5 -97t-168 -52.5v-253h-125v244q-94 1 -181.5 25t-162 64.5t-132 94.5t-93.5 117z" />
    <glyph glyph-name="Euro" unicode="&#x20ac;" horiz-adv-x="1968" 
d="M329 717q-6 53 -6 107t6 105h-116v125h139q36 137 113 252t186.5 198t247 129.5t294.5 46.5q155 0 290.5 -44t238.5 -122l-102 -166q-81 64 -188 97.5t-226 33.5q-116 0 -216 -31t-180 -87.5t-138 -134.5t-90 -172h877v-125h-907q-4 -26 -5.5 -52t-1.5 -53q0 -28 2 -54.5
t6 -52.5h906v-125h-876q32 -94 90 -171.5t138 -133.5t179.5 -87t215.5 -31q119 0 226 33.5t188 97.5l102 -166q-103 -78 -238.5 -122t-290.5 -44q-157 0 -294.5 46t-246.5 129t-186 197.5t-113 251.5h-140v125h116z" />
    <glyph glyph-name="florin" unicode="&#x192;" horiz-adv-x="857" 
d="M-50 -349q20 -14 48 -22.5t58 -8.5q75 0 118.5 53.5t54.5 167.5l103 1037h-113l13 147h114l34 332q9 92 38 165t74 123.5t106 77.5t134 27q60 0 114 -17.5t92 -50.5l-85 -134q-20 14 -48 22.5t-58 8.5q-75 0 -117.5 -53.5t-54.5 -167.5l-35 -333h255l-13 -147h-255
l-103 -1036q-9 -92 -37.5 -165t-74 -123.5t-106 -77.5t-134.5 -27q-60 0 -114.5 17.5t-92.5 50.5z" />
    <glyph glyph-name="sterling" unicode="&#xa3;" horiz-adv-x="1533" 
d="M140 729h260q-27 42 -52 87.5t-44 96t-30.5 107.5t-11.5 122q0 123 40 222.5t112 170t172 108.5t220 38q103 0 193 -28.5t160.5 -81t120 -127.5t71.5 -169l-168 -76q-13 60 -42 117t-75 100.5t-110.5 70t-150.5 26.5q-82 0 -147.5 -25.5t-111 -73t-69.5 -115t-24 -151.5
q0 -60 12 -114.5t31.5 -105.5t44 -100t50.5 -99h463v-116h-426q19 -36 29.5 -73t10.5 -85q0 -45 -10.5 -94.5t-34.5 -100.5q54 -3 106.5 -24t105.5 -44t107 -42t110 -19q54 0 95 17.5t69.5 47.5t45 69.5t22.5 83.5l156 -76q-12 -66 -43 -121.5t-78 -96t-109.5 -63
t-136.5 -22.5q-54 0 -103 11.5t-94.5 28.5t-88.5 37t-85 37t-83.5 28.5t-84.5 11.5q-36 0 -68 -8.5t-57.5 -24.5t-42 -39t-20.5 -52h-171q2 54 24.5 102t60.5 85.5t90 60t113 25.5q16 35 27 83.5t11 98.5q0 51 -12.5 88.5t-31.5 69.5h-317v116z" />
    <glyph glyph-name="yen" unicode="&#xa5;" horiz-adv-x="1319" 
d="M-20 1650h246l433 -716l433 716h246l-527 -848h355v-148h-405v-211h405v-148h-405v-295h-204v295h-401v148h401v211h-401v148h351z" />
    <glyph glyph-name="plus" unicode="+" horiz-adv-x="1291" 
d="M561 913v429h168v-429h429v-168h-429v-429h-168v429h-429v168h429z" />
    <glyph glyph-name="minus" unicode="&#x2212;" horiz-adv-x="1313" 
d="M144 745v168h1025v-168h-1025z" />
    <glyph glyph-name="multiply" unicode="&#xd7;" horiz-adv-x="1196" 
d="M242 357l-117 117l355 355l-355 355l118 116l354 -354l355 354l116 -116l-354 -355l354 -355l-118 -117l-353 354z" />
    <glyph glyph-name="divide" unicode="&#xf7;" horiz-adv-x="1321" 
d="M147 746v168h1026v-168h-1026zM560 351q0 21 8 40t21.5 32.5t31.5 21.5t39 8t39 -8t31.5 -21.5t21.5 -32.5t8 -40t-8 -40t-21.5 -32.5t-31.5 -21.5t-39 -8t-39 8t-31.5 21.5t-21.5 32.5t-8 40zM660 1411q21 0 39 -8t31.5 -21.5t21.5 -32.5t8 -40t-8 -40t-21.5 -32.5
t-31.5 -21.5t-39 -8t-39 8t-31.5 21.5t-21.5 32.5t-8 40t8 40t21.5 32.5t31.5 21.5t39 8z" />
    <glyph glyph-name="equal" unicode="=" horiz-adv-x="1312" 
d="M144 956v168h1024v-168h-1024zM1168 704v-168h-1024v168h1024z" />
    <glyph glyph-name="notequal" unicode="&#x2260;" horiz-adv-x="1312" 
d="M144 704h374l146 252h-520v168h618l172 296h136l-172 -296h270v-168h-368l-146 -252h514v-168h-612l-178 -306h-136l178 306h-276v168z" />
    <glyph glyph-name="greater" unicode="&#x3e;" horiz-adv-x="1302" 
d="M1211 896v-128l-1093 -498v160l886 402l-886 402v160z" />
    <glyph glyph-name="less" unicode="&#x3c;" horiz-adv-x="1302" 
d="M90 896l1093 498v-160l-886 -402l886 -402v-160l-1093 498v128z" />
    <glyph glyph-name="greaterequal" unicode="&#x2265;" horiz-adv-x="1310" 
d="M125 1432v156l1094 -498v-128l-1094 -498v155l891 405zM125 119v168h1094v-168h-1094z" />
    <glyph glyph-name="lessequal" unicode="&#x2264;" horiz-adv-x="1311" 
d="M1185 1588v-156l-892 -408l892 -405v-155l-1095 498v128zM1185 287v-168h-1095v168h1095z" />
    <glyph glyph-name="plusminus" unicode="&#xb1;" horiz-adv-x="1324" 
d="M577 935v406h169v-406h428v-167h-428v-406h-169v406h-428v167h428zM149 168h1025v-168h-1025v168z" />
    <glyph glyph-name="approxequal" unicode="&#x2248;" horiz-adv-x="1308" 
d="M148 1003q53 99 129 155.5t175 56.5q46 0 83 -12t69 -30t61 -38.5t59 -38.5t62.5 -30t71.5 -12q69 0 119 37t83 95l108 -70q-53 -99 -129 -155.5t-175 -56.5q-46 0 -83 12t-69 30t-61 38.5t-59 38.5t-62.5 30t-71.5 12q-69 0 -119 -37t-83 -95zM144 514q53 99 129 155.5
t175 56.5q46 0 83 -12t69 -30t61 -38.5t59 -38.5t62.5 -30t71.5 -12q69 0 119 37t83 95l108 -70q-53 -99 -129 -155.5t-175 -56.5q-46 0 -83 12t-69 30t-61 38.5t-59 38.5t-62.5 30t-71.5 12q-69 0 -119 -37t-83 -95z" />
    <glyph glyph-name="asciitilde" unicode="~" horiz-adv-x="1313" 
d="M147 779q53 99 129 155.5t175 56.5q46 0 83.5 -12t69.5 -30t60.5 -38.5t58 -38.5t62 -30t71.5 -12q63 0 115 33.5t89 98.5l107 -70q-57 -107 -135 -159.5t-169 -52.5q-46 0 -83 12t-69 30t-61 38.5t-59 38.5t-62.5 30t-71.5 12q-69 0 -119 -37t-83 -95z" />
    <glyph glyph-name="logicalnot" unicode="&#xac;" horiz-adv-x="1435" 
d="M1062 316v429h-858v168h1026v-597h-168z" />
    <glyph glyph-name="asciicircum" unicode="^" horiz-adv-x="943" 
d="M422 1681h100l414 -471h-174l-290 335l-290 -335h-174z" />
    <glyph glyph-name="infinity" unicode="&#x221e;" horiz-adv-x="2082" 
d="M97 545q0 99 38 181.5t100 142.5t141.5 93t163.5 33q72 0 137 -25t126 -69t120 -104t118 -131q59 71 118 131t120 104t126 69t137 25q84 0 163.5 -33t141.5 -93t100 -142.5t38 -181.5t-37.5 -182t-100 -142.5t-142 -93t-163.5 -33.5q-72 0 -137 25t-126 69t-120 104.5
t-118 131.5q-59 -71 -118 -131.5t-120 -104.5t-126 -69t-137 -25q-84 0 -163.5 33.5t-142 93t-100 142.5t-37.5 182zM1141 545q50 -58 95.5 -109.5t90.5 -89.5t92.5 -60t100.5 -22q51 0 100.5 20.5t88.5 57.5t62.5 88.5t23.5 114.5t-24 114.5t-62.5 88t-88 57t-100.5 20.5
q-53 0 -100.5 -22t-92.5 -60t-90.5 -89t-95.5 -109zM287 545q0 -63 23.5 -114.5t62.5 -88.5t88 -57.5t100 -20.5q53 0 100.5 22t93 60t91 89.5t95.5 109.5q-50 58 -95.5 109t-91 89t-92.5 60t-101 22q-51 0 -100 -20.5t-87.5 -57t-62.5 -88t-24 -114.5z" />
    <glyph glyph-name="emptyset" unicode="&#x2205;" horiz-adv-x="1231" 
d="M268 350q-47 59 -73 132t-26 156q0 96 35.5 180.5t98 147t146.5 98.5t181 36q83 0 156 -26t132 -74l136 136l71 -73l-135 -135q47 -60 73 -133t26 -156q0 -97 -36 -181.5t-98 -147t-146 -98t-180 -35.5q-83 0 -156.5 26t-132.5 74l-135 -135l-73 72zM431 369
q42 -29 91.5 -45.5t106.5 -16.5q71 0 132 25t106 69.5t70.5 105.5t25.5 132q0 57 -16.5 107t-46.5 91zM827 909q-42 29 -91.5 45t-106.5 16q-70 0 -131 -25t-106 -69.5t-70.5 -105t-25.5 -131.5q0 -57 16.5 -107t46.5 -91z" />
    <glyph glyph-name="integral" unicode="&#x222b;" horiz-adv-x="857" 
d="M-54 -346q20 -16 49 -25t62 -9q76 0 118.5 53.5t53.5 167.5l151 1516q9 94 36.5 167t72 123.5t105 76.5t135.5 26q62 0 116.5 -17.5t92.5 -50.5l-81 -137q-20 16 -49 25t-61 9q-77 0 -119 -53.5t-53 -167.5l-151 -1516q-9 -94 -37 -167t-72.5 -123.5t-105 -76.5
t-135.5 -26q-62 0 -116.5 17.5t-92.5 50.5z" />
    <glyph glyph-name="product" unicode="&#x220f;" horiz-adv-x="1674" 
d="M179 1575v145h1316v-145h-169v-1575h-155v1575h-669v-1575h-155v1575h-168z" />
    <glyph glyph-name="summation" unicode="&#x2211;" horiz-adv-x="1443" 
d="M1264 1720v-145h-813l478 -715l-478 -715h813v-145h-1085l578 860l-578 860h1085z" />
    <glyph glyph-name="radical" unicode="&#x221a;" horiz-adv-x="1559" 
d="M429 -32l-250 641h156l176 -458l370 1569h499v-145h-375l-394 -1607h-182z" />
    <glyph glyph-name="partialdiff" unicode="&#x2202;" horiz-adv-x="1386" 
d="M103 521q0 112 41.5 212t115 175t174.5 119t221 44q65 0 127 -15.5t115.5 -45t94.5 -71t65 -94.5q-29 266 -162 469.5t-372 341.5l87 146q158 -90 283 -208t211.5 -260.5t132 -307.5t45.5 -349q0 -165 -37 -296.5t-109 -224t-179 -141.5t-248 -49q-129 0 -239.5 42
t-192 116t-128 175.5t-46.5 221.5zM688 139q85 0 154 31.5t117.5 84t74.5 121.5t26 145q0 85 -31.5 153.5t-84 117t-122 74.5t-145.5 26q-85 0 -154 -31.5t-117.5 -84.5t-74.5 -122t-26 -145q0 -85 31.5 -153.5t84 -116.5t122 -74t145.5 -26z" />
    <glyph glyph-name="uni00B5" unicode="&#xb5;" horiz-adv-x="1552" 
d="M290 -320q0 111 7 199.5t15 173t15 175t7 205.5v591h194v-603q0 -146 68 -222t197 -76q57 0 106.5 20t86.5 55t58.5 81.5t21.5 98.5v646h195v-1024h-195v132q-22 -36 -55.5 -66.5t-75 -52t-88.5 -33.5t-95 -12q-158 0 -224 102v-390h-238z" />
    <glyph glyph-name="percent" unicode="%" horiz-adv-x="2007" 
d="M88 1286q0 87 32 159.5t88.5 124.5t133 81t165.5 29t165.5 -29t133 -81t88.5 -124.5t32 -159.5t-32 -159.5t-88.5 -124.5t-133 -81t-165.5 -29t-165.5 29t-133 81t-88.5 124.5t-32 159.5zM1078 362q0 87 32 159.5t88.5 124.5t133 81t165.5 29t165.5 -29t133 -81
t88.5 -124.5t32 -159.5t-32 -159.5t-88.5 -124.5t-133 -81t-165.5 -29t-165.5 29t-133 81t-88.5 124.5t-32 159.5zM507 1018q57 0 106 20t84.5 55.5t56 84.5t20.5 108t-20.5 108t-56 84.5t-84.5 55.5t-106 20t-106 -20t-84.5 -55.5t-56 -84.5t-20.5 -108t20.5 -108t56 -84.5
t84.5 -55.5t106 -20zM1497 94q57 0 106 20t84.5 55.5t56 84.5t20.5 108t-20.5 108t-56 84.5t-84.5 55.5t-106 20t-106 -20t-84.5 -55.5t-56 -84.5t-20.5 -108t20.5 -108t56 -84.5t84.5 -55.5t106 -20zM1410 1650h141l-960 -1650h-141z" />
    <glyph glyph-name="perthousand" unicode="&#x2030;" horiz-adv-x="2939" 
d="M1078 362q0 87 32 159.5t88.5 124.5t133 81t165.5 29t165.5 -29t133 -81t88.5 -124.5t32 -159.5t-32 -159.5t-88.5 -124.5t-133 -81t-165.5 -29t-165.5 29t-133 81t-88.5 124.5t-32 159.5zM2429 756q89 0 165.5 -29t133 -81t88.5 -124.5t32 -159.5t-32 -159.5
t-88.5 -124.5t-133 -81t-165.5 -29t-165.5 29t-133 81t-88.5 124.5t-32 159.5t32 159.5t88.5 124.5t133 81t165.5 29zM88 1286q0 87 32 159.5t88.5 124.5t133 81t165.5 29t165.5 -29t133 -81t88.5 -124.5t32 -159.5t-32 -159.5t-88.5 -124.5t-133 -81t-165.5 -29t-165.5 29
t-133 81t-88.5 124.5t-32 159.5zM1497 94q57 0 106 20t84.5 55.5t56 84.5t20.5 108t-20.5 108t-56 84.5t-84.5 55.5t-106 20t-106 -20t-84.5 -55.5t-56 -84.5t-20.5 -108t20.5 -108t56 -84.5t84.5 -55.5t106 -20zM507 1018q57 0 106 20t84.5 55.5t56 84.5t20.5 108
t-20.5 108t-56 84.5t-84.5 55.5t-106 20t-106 -20t-84.5 -55.5t-56 -84.5t-20.5 -108t20.5 -108t56 -84.5t84.5 -55.5t106 -20zM2162 362q0 -59 20.5 -108t56 -84.5t84.5 -55.5t106 -20t106 20t84.5 55.5t56 84.5t20.5 108t-20.5 108t-56 84.5t-84.5 55.5t-106 20t-106 -20
t-84.5 -55.5t-56 -84.5t-20.5 -108zM1410 1650h141l-960 -1650h-141z" />
    <glyph glyph-name="lozenge" unicode="&#x25ca;" horiz-adv-x="1231" 
d="M537 -80l-420 875l420 875h156l420 -875l-420 -875h-156zM615 133l319 662l-319 662l-319 -662z" />
    <glyph glyph-name="at" unicode="@" horiz-adv-x="1908" 
d="M101 440q0 124 30.5 235.5t87 207t135 172.5t175 131t207.5 83.5t232 29.5q109 0 213.5 -24.5t198 -71.5t171.5 -116.5t135 -159.5t88.5 -200t31.5 -239q0 -94 -21.5 -172.5t-61 -135.5t-95 -89t-124.5 -32q-76 0 -134.5 33.5t-92.5 84.5q-26 -49 -63 -89t-83 -68.5
t-101 -44t-117 -15.5q-94 0 -174.5 35t-139.5 97t-93 148.5t-34 188.5q0 101 33.5 187t93 148.5t140.5 98t177 35.5q58 0 110.5 -14t98 -40.5t82.5 -63.5t63 -83v174h132v-532q0 -34 7.5 -62.5t23 -49.5t38.5 -32.5t54 -11.5q66 0 107 74t41 216q0 115 -28 210t-77 170.5
t-116 131.5t-144.5 93t-162 55.5t-169.5 18.5q-103 0 -195.5 -25.5t-171.5 -71.5t-142 -111t-107 -144t-68 -169t-24 -188q0 -144 52 -271t144.5 -221.5t220.5 -149t280 -54.5q86 0 160.5 18t136 48t110.5 70t84 84l135 -86q-44 -61 -106.5 -114.5t-142 -93.5t-174.5 -63
t-205 -23q-122 0 -233.5 29.5t-207.5 83.5t-173.5 131t-132.5 172t-85 205.5t-30 231.5zM945 87q72 0 132 25.5t103.5 70.5t68 108t24.5 138q0 77 -25 140.5t-68.5 109t-103.5 71t-130 25.5t-129.5 -25.5t-103.5 -71t-69 -109t-25 -140.5q0 -75 24.5 -138t68 -108.5
t103.5 -70.5t130 -25z" />
    <glyph glyph-name="ampersand" unicode="&#x26;" horiz-adv-x="1554" 
d="M107 414q0 165 99.5 288.5t297.5 213.5q-58 61 -98.5 112t-65 97t-35.5 89.5t-11 89.5q0 86 33 156t90 119t134 75.5t165 26.5q99 0 176.5 -31t131.5 -83.5t82 -121.5t28 -145q0 -67 -22 -123.5t-65.5 -106t-107 -94t-147.5 -86.5l393 -424q23 21 53 56t60 71.5t56 69
t39 49.5l127 -113q-22 -32 -48 -67.5t-53.5 -70.5t-55 -67.5t-51.5 -58.5l310 -335h-254l-204 221q-121 -122 -260 -187.5t-294 -65.5q-107 0 -199 30.5t-159.5 88t-106 140t-38.5 187.5zM330 440q0 -67 24.5 -119.5t66 -88.5t96.5 -54.5t117 -18.5q104 0 205.5 51.5
t193.5 149.5l-421 444q-137 -60 -209.5 -154.5t-72.5 -209.5zM684 1004q65 33 115.5 65t85 67t52.5 75t18 91q0 52 -17.5 94t-48.5 72t-73.5 46.5t-91.5 16.5t-91 -16.5t-72 -46.5t-47 -71t-17 -90q0 -35 9.5 -67.5t31 -68t57.5 -76t89 -91.5z" />
    <glyph glyph-name="paragraph" unicode="&#xb6;" horiz-adv-x="1374" 
d="M151 1174q0 104 35 191t101.5 150.5t162 99t216.5 35.5h527v-1650h-125v1528h-84v-1528h-125v679h-193q-121 0 -216.5 39t-162 106t-101.5 157.5t-35 192.5z" />
    <glyph glyph-name="section" unicode="&#xa7;" horiz-adv-x="1310" 
d="M118 -181l176 44q19 -53 54.5 -98t83 -77.5t106 -51t123.5 -18.5t118.5 19t92 53.5t60 82.5t21.5 106q0 64 -29.5 111t-81.5 84t-123 69t-155 66q-68 30 -138.5 67t-127 85.5t-92 112t-32.5 145.5q2 50 18 96.5t45.5 86.5t71 71.5t93.5 52.5q-95 61 -142.5 142t-47.5 189
q0 90 32 167t92 134t145.5 89.5t191.5 32.5q95 0 169.5 -25t129 -66.5t90.5 -95t54 -110.5l-177 -44q-11 36 -34.5 67.5t-57.5 55t-76.5 37t-91.5 13.5q-56 0 -103 -19t-80.5 -52t-52.5 -77t-19 -94q0 -62 31.5 -107.5t81 -80t110 -61t117.5 -49.5q49 -21 101 -45t101 -52.5
t93 -63t76.5 -75t51 -89t17.5 -105.5q-1 -49 -17 -95t-45.5 -86t-71 -72t-94.5 -54q94 -66 142.5 -150.5t48.5 -196.5q0 -103 -39.5 -184t-107.5 -137.5t-160.5 -86.5t-197.5 -30q-118 0 -211.5 34t-162 87.5t-111 119t-59.5 128.5zM372 644q0 -41 16 -73t47.5 -59
t79.5 -51.5t111 -50.5q41 -18 70 -30.5t52.5 -23t45 -21t47.5 -23.5q32 11 61.5 30t52.5 45t37 58t14 68q0 40 -17.5 74.5t-57.5 67.5t-106 66t-162 70q-16 6 -30 12t-28.5 12.5t-31 14t-37.5 17.5q-30 -9 -59.5 -27t-53 -44t-37.5 -59.5t-14 -72.5z" />
    <glyph glyph-name="copyright" unicode="&#xa9;" horiz-adv-x="1891" 
d="M101 823q0 119 30 228.5t84.5 204.5t131 173t170 134t201.5 86.5t225 30.5q118 0 226 -30.5t202 -86t171 -133.5t132 -173.5t85 -205.5t30 -229t-30 -228.5t-84.5 -204t-131.5 -172.5t-170.5 -133t-202 -85t-226.5 -30q-177 0 -330.5 66t-267.5 181.5t-179.5 271
t-65.5 335.5zM944 104q99 0 189.5 25.5t169 71.5t143 111t110 145t70.5 172.5t25 192.5q0 101 -25 193.5t-71 173t-110.5 146.5t-143 113t-169.5 72.5t-189 25.5q-97 0 -187.5 -26t-168.5 -73t-142 -113t-110 -146.5t-71 -173t-25 -192.5q0 -101 24.5 -193.5t70 -172
t109.5 -145t142.5 -111.5t169 -71t189.5 -25zM444 824q0 100 37.5 187.5t104 152.5t157 102.5t195.5 37.5q89 0 169 -26t136 -71l-77 -107q-87 61 -205 61q-77 0 -139.5 -26.5t-107 -72.5t-68.5 -107.5t-24 -130.5t24 -130.5t68.5 -107.5t107 -72.5t139.5 -26.5
q118 0 205 61l77 -107q-56 -45 -136 -70.5t-169 -25.5q-105 0 -195.5 37.5t-157 102t-104 152t-37.5 187.5z" />
    <glyph glyph-name="registered" unicode="&#xae;" horiz-adv-x="1053" 
d="M70 1231q0 94 36 177.5t98 145.5t145 98.5t177 36.5t177 -36.5t145 -98.5t98 -145.5t36 -177.5t-36 -177.5t-98 -145.5t-145 -98.5t-177 -36.5t-177 36.5t-145 98.5t-98 145.5t-36 177.5zM151 1231q0 -78 29.5 -146.5t80.5 -119.5t119 -81t146 -30t146 30t119 81
t80.5 119.5t29.5 146.5t-29.5 146.5t-80.5 119.5t-119 81t-146 30t-146 -30t-119 -81t-80.5 -119.5t-29.5 -146.5zM473 1495q79 0 125 -41t46 -113q0 -63 -35.5 -102.5t-98.5 -48.5l173 -220h-82l-163 214h-49v-214h-64v525h148zM389 1443v-204h67q57 0 89 27t32 75t-32 75
t-89 27h-67z" />
    <glyph glyph-name="trademark" unicode="&#x2122;" horiz-adv-x="1258" 
d="M179 1650h360v-57h-149v-454h-63v454h-148v57zM538 1139l61 511h67l142 -376l142 376h67l62 -511h-63l-49 395l-137 -370h-43l-137 370l-49 -395h-63z" />
    <glyph glyph-name="degree" unicode="&#xb0;" horiz-adv-x="678" 
d="M123 1543q0 46 16.5 84t46 65.5t69 42.5t84.5 15q46 0 85.5 -15t69 -42t46 -65t16.5 -84q0 -45 -16.5 -83t-45.5 -65.5t-68.5 -42.5t-86.5 -15q-48 0 -87.5 15.5t-68 43t-44.5 65t-16 81.5zM216 1543q0 -56 34.5 -90.5t88.5 -34.5q55 0 89 35t34 90q0 29 -9.5 52.5
t-26.5 40t-39 25.5t-48 9q-53 0 -88 -35t-35 -92z" />
    <glyph glyph-name="bar" unicode="|" horiz-adv-x="531" 
d="M178 0v1720h172v-1720h-172z" />
    <glyph glyph-name="brokenbar" unicode="&#xa6;" horiz-adv-x="531" 
d="M178 1056v664h172v-664h-172zM350 664v-664h-172v664h172z" />
    <glyph glyph-name="dagger" unicode="&#x2020;" horiz-adv-x="965" 
d="M395 1242v478h172v-478h316v-156h-316v-1086h-172v1086h-316v156h316z" />
    <glyph glyph-name="daggerdbl" unicode="&#x2021;" horiz-adv-x="965" 
d="M79 1224h316v496h172v-496h316v-157h-316v-393h316v-156h-316v-518h-172v518h-316v156h316v393h-316v157z" />
    <glyph glyph-name="uni0308" unicode="&#x308;" horiz-adv-x="725" 
d="M598 1509q23 0 43 -9t35 -24t24 -35t9 -43t-9 -43t-24 -35t-35 -24t-43 -9t-43 9t-35 24t-24 35t-9 43t9 43t24 35t35 24t43 9zM15 1398q0 23 9 43t24 35t35 24t43 9t43 -9t35 -24t24 -35t9 -43t-9 -43t-24 -35t-35 -24t-43 -9t-43 9t-35 24t-24 35t-9 43z" />
    <glyph glyph-name="uni0307" unicode="&#x307;" horiz-adv-x="275" 
d="M15 1476q0 25 9.5 47.5t26 39t39 26t47.5 9.5t47.5 -9.5t39 -26t26 -39t9.5 -47.5t-9.5 -47.5t-26 -39t-39 -26t-47.5 -9.5t-47.5 9.5t-39 26t-26 39t-9.5 47.5z" />
    <glyph glyph-name="gravecomb" unicode="&#x300;" horiz-adv-x="408" 
d="M376 1210l-410 204l98 145l376 -253z" />
    <glyph glyph-name="acutecomb" unicode="&#x301;" horiz-adv-x="389" 
d="M324 1559l85 -152l-397 -197l-64 96z" />
    <glyph glyph-name="uni030B" unicode="&#x30b;" horiz-adv-x="819" 
d="M498 1332l-83 94l256 254l132 -140zM98 1332l-83 94l257 254l131 -140z" />
    <glyph glyph-name="uni0302" unicode="&#x302;" horiz-adv-x="801" 
d="M94 1291l-79 107l385 282l385 -282l-79 -107l-306 224z" />
    <glyph glyph-name="uni030C" unicode="&#x30c;" horiz-adv-x="801" 
d="M400 1205l-385 282l79 107l306 -224l306 224l79 -107z" />
    <glyph glyph-name="uni0306" unicode="&#x306;" horiz-adv-x="877" 
d="M15 1645l143 35q9 -49 31.5 -92t58 -75.5t83.5 -51t107 -18.5t107 18.5t83.5 51t58 75.5t31.5 92l143 -35q-12 -74 -48.5 -135t-92 -104.5t-127 -67.5t-155.5 -24t-155.5 24t-127 67.5t-92 104.5t-48.5 135z" />
    <glyph glyph-name="uni030A" unicode="&#x30a;" horiz-adv-x="537" 
d="M15 1464q0 49 19.5 90t53.5 71t80.5 46.5t99.5 16.5t99.5 -16.5t80.5 -46.5t53.5 -71t19.5 -90t-19.5 -90t-53.5 -71t-80.5 -46.5t-99.5 -16.5t-99.5 16.5t-80.5 46.5t-53.5 71t-19.5 90zM136 1464q0 -26 10 -48t28 -38.5t42 -26t52 -9.5t52 9.5t42 26t28 38.5t10 48
t-10 48t-28 38.5t-42 26t-52 9.5t-52 -9.5t-42 -26t-28 -38.5t-10 -48z" />
    <glyph glyph-name="tildecomb" unicode="&#x303;" horiz-adv-x="1051" 
d="M15 1338q53 99 129 155.5t175 56.5q46 0 83 -12t69 -30t61 -38.5t59 -38.5t62.5 -30t71.5 -12q69 0 119 37t83 95l108 -70q-53 -99 -129 -155.5t-175 -56.5q-46 0 -83 12t-69 30t-61 38.5t-59 38.5t-62.5 30t-71.5 12q-69 0 -119 -37t-83 -95z" />
    <glyph glyph-name="uni0304" unicode="&#x304;" horiz-adv-x="847" 
d="M15 1321v136h816v-136h-816z" />
    <glyph glyph-name="uni0312" unicode="&#x312;" horiz-adv-x="766" 
d="M349 1288q-40 0 -63.5 27.5t-23.5 78.5q0 33 10 68.5t27 69.5t41 65t52 53l30 -26q-23 -29 -40.5 -74t-19.5 -94q32 -5 52.5 -27.5t20.5 -56.5q0 -36 -24 -60t-62 -24z" />
    <glyph glyph-name="uni0326" unicode="&#x326;" horiz-adv-x="766" 
d="M381 -122q40 0 63.5 -27.5t23.5 -78.5q0 -33 -10 -68.5t-27 -69.5t-41 -65t-52 -53l-30 26q23 29 40.5 74t19.5 94q-32 5 -52.5 27.5t-20.5 56.5q0 36 24 60t62 24z" />
    <glyph glyph-name="uni0327" unicode="&#x327;" horiz-adv-x="551" 
d="M15 -393l85 59q31 -48 77.5 -74t102.5 -26q63 0 101.5 31.5t38.5 82.5q0 49 -37.5 79t-97.5 30q-32 0 -67.5 -8.5t-57.5 -21.5l-11 8l82 254h96l-53 -161q8 2 14.5 2h14.5q42 0 83.5 -11t74.5 -33.5t53.5 -57.5t20.5 -83q0 -47 -18.5 -87t-52 -68.5t-80 -44.5t-101.5 -16
q-84 0 -152 37.5t-116 108.5z" />
    <glyph glyph-name="uni0328" unicode="&#x328;" horiz-adv-x="557" 
d="M15 -313q0 69 46 154.5t133 179.5h102q-37 -42 -66.5 -84t-49.5 -82t-31 -76.5t-11 -66.5q0 -27 9 -51.5t27.5 -42.5t45.5 -28.5t63 -10.5q96 0 173 90l85 -63q-23 -33 -53.5 -60t-66.5 -45.5t-75 -28.5t-80 -10q-55 0 -101 17.5t-79.5 48.5t-52 71.5t-18.5 87.5z" />
    <glyph glyph-name="dieresis" unicode="&#xa8;" horiz-adv-x="725" 
d="M598 1509q23 0 43 -9t35 -24t24 -35t9 -43t-9 -43t-24 -35t-35 -24t-43 -9t-43 9t-35 24t-24 35t-9 43t9 43t24 35t35 24t43 9zM15 1398q0 23 9 43t24 35t35 24t43 9t43 -9t35 -24t24 -35t9 -43t-9 -43t-24 -35t-35 -24t-43 -9t-43 9t-35 24t-24 35t-9 43z" />
    <glyph glyph-name="dotaccent" unicode="&#x2d9;" horiz-adv-x="275" 
d="M15 1476q0 25 9.5 47.5t26 39t39 26t47.5 9.5t47.5 -9.5t39 -26t26 -39t9.5 -47.5t-9.5 -47.5t-26 -39t-39 -26t-47.5 -9.5t-47.5 9.5t-39 26t-26 39t-9.5 47.5z" />
    <glyph glyph-name="grave" unicode="`" horiz-adv-x="408" 
d="M376 1210l-410 204l98 145l376 -253z" />
    <glyph glyph-name="acute" unicode="&#xb4;" horiz-adv-x="389" 
d="M324 1559l85 -152l-397 -197l-64 96z" />
    <glyph glyph-name="hungarumlaut" unicode="&#x2dd;" horiz-adv-x="819" 
d="M498 1332l-83 94l256 254l132 -140zM98 1332l-83 94l257 254l131 -140z" />
    <glyph glyph-name="circumflex" unicode="&#x2c6;" horiz-adv-x="801" 
d="M94 1291l-79 107l385 282l385 -282l-79 -107l-306 224z" />
    <glyph glyph-name="caron" unicode="&#x2c7;" horiz-adv-x="801" 
d="M400 1205l-385 282l79 107l306 -224l306 224l79 -107z" />
    <glyph glyph-name="breve" unicode="&#x2d8;" horiz-adv-x="877" 
d="M15 1645l143 35q9 -49 31.5 -92t58 -75.5t83.5 -51t107 -18.5t107 18.5t83.5 51t58 75.5t31.5 92l143 -35q-12 -74 -48.5 -135t-92 -104.5t-127 -67.5t-155.5 -24t-155.5 24t-127 67.5t-92 104.5t-48.5 135z" />
    <glyph glyph-name="ring" unicode="&#x2da;" horiz-adv-x="537" 
d="M15 1464q0 49 19.5 90t53.5 71t80.5 46.5t99.5 16.5t99.5 -16.5t80.5 -46.5t53.5 -71t19.5 -90t-19.5 -90t-53.5 -71t-80.5 -46.5t-99.5 -16.5t-99.5 16.5t-80.5 46.5t-53.5 71t-19.5 90zM136 1464q0 -26 10 -48t28 -38.5t42 -26t52 -9.5t52 9.5t42 26t28 38.5t10 48
t-10 48t-28 38.5t-42 26t-52 9.5t-52 -9.5t-42 -26t-28 -38.5t-10 -48z" />
    <glyph glyph-name="tilde" unicode="&#x2dc;" horiz-adv-x="1051" 
d="M15 1338q53 99 129 155.5t175 56.5q46 0 83 -12t69 -30t61 -38.5t59 -38.5t62.5 -30t71.5 -12q69 0 119 37t83 95l108 -70q-53 -99 -129 -155.5t-175 -56.5q-46 0 -83 12t-69 30t-61 38.5t-59 38.5t-62.5 30t-71.5 12q-69 0 -119 -37t-83 -95z" />
    <glyph glyph-name="macron" unicode="&#xaf;" horiz-adv-x="847" 
d="M15 1321v136h816v-136h-816z" />
    <glyph glyph-name="cedilla" unicode="&#xb8;" horiz-adv-x="551" 
d="M15 -393l85 59q31 -48 77.5 -74t102.5 -26q63 0 101.5 31.5t38.5 82.5q0 49 -37.5 79t-97.5 30q-32 0 -67.5 -8.5t-57.5 -21.5l-11 8l82 254h96l-53 -161q8 2 14.5 2h14.5q42 0 83.5 -11t74.5 -33.5t53.5 -57.5t20.5 -83q0 -47 -18.5 -87t-52 -68.5t-80 -44.5t-101.5 -16
q-84 0 -152 37.5t-116 108.5z" />
    <glyph glyph-name="ogonek" unicode="&#x2db;" horiz-adv-x="557" 
d="M15 -313q0 69 46 154.5t133 179.5h102q-37 -42 -66.5 -84t-49.5 -82t-31 -76.5t-11 -66.5q0 -27 9 -51.5t27.5 -42.5t45.5 -28.5t63 -10.5q96 0 173 90l85 -63q-23 -33 -53.5 -60t-66.5 -45.5t-75 -28.5t-80 -10q-55 0 -101 17.5t-79.5 48.5t-52 71.5t-18.5 87.5z" />
    <glyph glyph-name="uni2215" unicode="&#x2215;" horiz-adv-x="1064" 
d="M38 -240l824 1960h163l-824 -1960h-163z" />
    </font>
</defs>
</svg>
